#VERSION:0.83;
#TITLE:money pull up;
#SUBTITLE:;
#ARTIST:Blaiz Fiyah, Maureen, & DJ Glad;
#TITLETRANSLIT:;
#SUBTITLETRANSLIT:;
#ARTISTTRANSLIT:;
#GENRE:;
#ORIGIN:;
#CREDIT:;
#BANNER:;
#BACKGROUND:;
#PREVIEWVID:;
#JACKET:;
#CDIMAGE:;
#DISCIMAGE:;
#LYRICSPATH:;
#CDTITLE:;
#MUSIC:Blaiz Fayah X Maureen - Money Pull Up (Official Audio).ogg;
#OFFSET:0.000000;
#SAMPLESTART:100.059883;
#SAMPLELENGTH:12.000000;
#SELECTABLE:YES;
#BPMS:0.000=100.000;
#STOPS:0.000=0.100;
#DELAYS:;
#WARPS:;
#TIMESIGNATURES:0.000=4=4;
#TICKCOUNTS:0.000=4;
#COMBOS:0.000=1;
#SPEEDS:0.000=1.000=0.000=0;
#SCROLLS:0.000=1.000;
#FAKES:;
#LABELS:0.000=Song Start;
#BGCHANGES:;
#KEYSOUNDS:;
#ATTACKS:
;

//---------------dance-single - ----------------
#NOTEDATA:;
#CHARTNAME:;
#STEPSTYPE:dance-single;
#DESCRIPTION:;
#CHARTSTYLE:;
#DIFFICULTY:Hard;
#METER:13;
#RADARVALUES:0.692629,0.677356,0.054476,0.007782,1.000031,623.000000,616.000000,7.000000,1.000000,0.000000,0.000000,0.000000,0.000000,0.000000,0.692629,0.677356,0.054476,0.007782,1.000031,623.000000,616.000000,7.000000,1.000000,0.000000,0.000000,0.000000,0.000000,0.000000;
#CREDIT:;
#NOTES:
// measure 0
0000
0000
0000
0000
,  // measure 1
0000
0000
0000
0000
,  // measure 2
1001
0000
0000
0000
1001
0101
0000
0101
,  // measure 3
1000
0100
0000
0000
0000
0000
0100
0001
1000
0000
0000
0000
0010
0100
0001
1000
,  // measure 4
0001
0010
0100
0001
1000
0001
0010
0100
0001
1000
0001
0010
0100
0001
1000
0010
,  // measure 5
0001
1000
0001
0100
1000
0010
0001
1000
0100
0010
0100
0001
1000
0001
0010
0100
,  // measure 6
0001
0100
0010
0100
0010
0001
1000
0001
0100
0010
0001
1000
0001
0100
0010
0001
,  // measure 7
1000
0001
0100
0010
0001
1000
0001
0100
1000
0001
0100
0010
0001
1000
0001
0100
,  // measure 8
1000
0000
0000
0010
0100
0000
0100
1000
0001
0010
0100
0001
1000
0100
0001
1000
,  // measure 9
0001
0000
0010
0000
0100
0001
1000
0000
0100
0001
0010
0000
0010
0100
0001
1000
,  // measure 10
0001
0000
0001
0100
0010
0000
0100
0010
0001
1000
0100
0000
0001
0010
0100
0001
,  // measure 11
1000
0100
0001
1000
0001
0010
0100
0001
0010
0001
0100
0000
0000
0001
0010
0100
,  // measure 12
0001
0000
0000
0000
0100
0000
0001
0000
0010
0100
0001
1000
1000
0000
0000
0000
,  // measure 13
0001
0100
0001
1000
0100
0010
0100
0000
0001
1000
0100
0001
0010
0001
0100
0001
,  // measure 14
1000
0000
0000
0000
0001
0000
0010
0000
0100
0001
1000
0000
0001
0000
0000
0000
,  // measure 15
0001
0000
0100
0000
1000
0001
0100
0010
1000
0100
0001
0000
0010
0001
0100
0001
,  // measure 16
1000
0000
0000
0001
0010
0100
0001
0000
0000
0001
1000
0001
0100
0000
0000
0000
,  // measure 17
0001
1000
0001
0100
0010
0001
1000
0000
0100
0010
0001
0100
1000
0010
0100
0001
,  // measure 18
1000
0100
0001
1000
0001
0010
0100
0000
0000
0010
0100
0001
1000
0000
0000
0000
,  // measure 19
0100
0000
0010
0000
0010
0001
0100
0010
0001
1000
0001
0100
1000
0100
0001
1000
,  // measure 20
0001
0000
0000
0000
0010
0000
0100
0000
0001
1000
0100
0001
0010
0000
0000
0001
,  // measure 21
0100
0000
0010
0100
0001
0010
0100
0010
0001
1000
0001
0100
1000
0010
0001
0100
,  // measure 22
1000
0000
0000
0000
0100
0010
0001
0010
0100
0010
0001
1000
0010
0000
0001
0000
,  // measure 23
1000
0000
0100
0000
0001
1000
0100
0001
0010
0100
0001
0100
1000
0100
0010
0001
,  // measure 24
1000
0000
0100
0010
0001
1000
0001
0100
1000
0010
0001
1000
0100
0000
0010
0100
,  // measure 25
0000
0001
1000
0100
0001
0100
0010
0100
0010
0100
0001
0100
1000
0000
0001
0010
,  // measure 26
0000
0100
0001
1000
0100
0000
0011
0000
0001
1000
0100
0001
0010
0000
1001
0000
,  // measure 27
0100
0000
0001
1000
0100
0000
0001
0000
0010
0000
1001
0000
0000
0010
0100
0001
,  // measure 28
1000
0000
0000
0000
0100
0000
0001
0000
1000
0100
0001
0100
0001
0000
0000
0000
,  // measure 29
0100
0001
0100
0010
0001
1000
0001
0000
0100
0010
0100
0001
1000
0001
0010
0100
,  // measure 30
0001
0000
0010
0100
0001
0010
0100
0010
,  // measure 31
0001
0000
1000
0000
0001
1000
0001
0100
1000
0010
0001
0100
1000
0010
0100
0001
,  // measure 32
1000
0000
0100
0001
1000
0001
0010
0000
0000
0100
0001
1000
0001
0000
0000
0000
,  // measure 33
0100
0010
0001
1000
0001
0100
1000
0000
0001
1000
0001
0100
1000
0010
0100
0001
,  // measure 34
1000
0000
0100
0010
0001
1000
0100
0000
0000
0001
0010
0100
0001
0000
0000
0000
,  // measure 35
0100
0000
0010
0000
1000
0100
0001
1000
0001
0010
0100
0001
1000
0100
0001
1000
,  // measure 36
0001
0100
0010
0100
0010
0001
1000
0000
0000
0010
0001
0100
0010
0001
1000
0001
,  // measure 37
0100
0010
0001
1000
0001
0100
1000
0010
0001
1000
0001
0010
0100
0001
1000
0010
,  // measure 38
0001
1000
0001
0100
0010
0001
1000
0100
0010
0001
0100
0001
1000
0000
0100
0000
,  // measure 39
0001
0100
0010
0001
1000
0001
0100
1000
0001
0100
0010
0001
1000
0001
0100
0010
,  // measure 40
0001
0000
0000
0100
1000
0000
0100
0001
1000
0010
0100
0000
0000
0001
1000
0000
,  // measure 41
0100
0000
0001
0000
1000
0100
0001
0000
0010
0100
0001
0100
0010
1000
0001
0100
,  // measure 42
1000
0000
0010
0100
0001
0000
0001
1000
0001
0100
1000
0000
0010
0100
0001
1000
,  // measure 43
0001
0000
0010
0100
0001
1000
0001
0010
0100
0001
0010
0000
0000
0010
0001
0100
,  // measure 44
1000
0000
0000
0000
0100
0000
0010
0000
1000
0100
0001
1000
0001
0000
0000
0000
,  // measure 45
0100
0010
0001
1000
0001
0100
1000
0000
0001
1000
0001
0100
1000
0010
0001
0100
,  // measure 46
1000
0000
0000
0000
0100
0000
0001
0000
1000
0000
0100
0001
0010
0000
0100
0000
,  // measure 47
1000
0000
0001
0000
0010
0100
0001
1000
0001
0010
0100
0001
1000
0001
0010
0100
,  // measure 48
0001
0000
0010
0100
0001
1000
0001
0000
0000
0100
0001
1000
0001
0000
0000
0000
,  // measure 49
0010
1000
0001
0010
0100
0001
1000
0000
0100
0001
1000
0001
0010
0100
0001
1000
,  // measure 50
0001
0000
0100
1000
0001
1000
0001
0000
0000
0010
0010
0010
0010
0000
0000
0000
,  // measure 51
0001
0000
0100
0000
1000
0010
0100
0001
1000
0001
0010
0100
0010
0001
1000
0001
,  // measure 52
0020
0000
0000
0030
;
