#VERSION:0.83;
#TITLE:molly;
#SUBTITLE:;
#ARTIST:Unknown artist;
#TITLETRANSLIT:;
#SUBTITLETRANSLIT:;
#ARTISTTRANSLIT:;
#GENRE:;
#ORIGIN:;
#CREDIT:;
#BANNER:;
#BACKGROUND:;
#PREVIEWVID:;
#JACKET:;
#CDIMAGE:;
#DISCIMAGE:;
#LYRICSPATH:;
#CDTITLE:;
#MUSIC:whiterosemoxie - MOLLY (Prod. After Wes).mp3;
#OFFSET:0.000000;
#SAMPLESTART:100.059883;
#SAMPLELENGTH:12.000000;
#SELECTABLE:YES;
#BPMS:0.000=162.000;
#STOPS:0.000=0.100;
#DELAYS:;
#WARPS:;
#TIMESIGNATURES:0.000=4=4;
#TICKCOUNTS:0.000=4;
#COMBOS:0.000=1;
#SPEEDS:0.000=1.000=0.000=0;
#SCROLLS:0.000=1.000;
#FAKES:;
#LABELS:0.000=Song Start;
#BGCHANGES:0.000=whiterosemoxie - MOLLY (Prod. After Wes).mp4=1.000=0=0=1=====,
99999=-nosongbg-=1.000=0=0=0 // don't automatically add -songbackground-
;
#KEYSOUNDS:;
#ATTACKS:
;

//---------------dance-single - ----------------
#NOTEDATA:;
#CHARTNAME:;
#STEPSTYPE:dance-single;
#DESCRIPTION:;
#CHARTSTYLE:;
#DIFFICULTY:Hard;
#METER:12;
#RADARVALUES:0.541065,0.705150,0.014028,0.042083,0.073645,540.000000,538.000000,2.000000,6.000000,0.000000,0.000000,0.000000,0.000000,0.000000,0.541065,0.705150,0.014028,0.042083,0.073645,540.000000,538.000000,2.000000,6.000000,0.000000,0.000000,0.000000,0.000000,0.000000;
#CREDIT:;
#NOTES:
0000
0000
0000
0000
,
0000
0000
0000
0000
,
0000
0000
0000
0000
,
0000
0000
0000
0000
,
0000
0000
0000
0000
,
0000
0000
0000
0000
,
0000
0000
0000
0000
,
0000
0000
0000
0000
,
0200
0300
0000
0000
,
0000
0000
0000
0000
,
0002
0003
0000
0000
,
0000
0000
0000
0000
,
0200
0300
0000
0000
,
0000
0000
0000
0000
,
0020
0030
0000
0000
,
0000
0000
0000
0000
,
0001
0100
1000
0000
,
0000
0000
0000
0000
0100
0001
0010
0010
,
0001
0100
1000
0000
0100
0000
0000
0000
,
0000
0000
1000
0100
0001
0000
0100
0000
,
0010
0100
0010
0000
,
0000
0000
0000
0000
0010
0001
0100
0010
,
0001
0100
1000
0000
0100
0000
0000
0000
,
0000
0000
0000
0000
0001
0100
0001
0100
,
1000
0000
0100
0000
0001
0010
0100
0010
0000
0001
0010
0000
0100
0000
0001
0000
,
1000
0000
0100
0000
0001
0010
0100
0001
0000
1000
0100
0000
0001
0000
0010
0000
,
0100
0000
0010
0000
0100
1000
0001
0100
0000
0010
0001
0000
0100
0000
0010
0000
,
0100
0000
0010
0000
0001
0100
1000
0100
0000
0010
0001
0000
0100
0000
0010
0000
,
0100
0000
0010
0000
0100
1000
0001
0100
0000
0010
0001
0000
0100
0000
0010
0000
,
0001
0000
0100
0000
0010
1000
0001
0100
0000
0010
0001
0000
0100
0000
0010
0000
,
0001
0000
0100
0000
1000
0100
0010
0001
0000
0100
0010
0000
0001
0000
0100
0000
,
0000
1000
0000
0100
0010
0001
0100
0010
,
0010
0001
1000
0001
0100
0010
0001
0100
,
1000
1000
0010
0001
1000
0001
0100
0010
,
0001
0100
1000
0100
0010
0001
0100
0001
,
0100
0010
0001
1000
0001
0100
0010
0001
,
1000
0001
0100
0010
0001
0100
0001
0100
,
0010
0001
1000
0001
0100
0010
0001
1000
,
0001
0100
0010
0001
1000
0001
0100
0010
,
0001
1000
0001
0100
0010
0001
0100
1000
,
0100
0010
0100
0000
0001
0000
0100
0010
,
0001
1000
0001
0100
0010
0001
0100
0100
,
0010
0001
0100
0010
0001
1000
0001
0100
,
0010
0001
0100
0001
0100
0010
0001
1000
,
0001
0100
0010
0001
0100
1000
0100
0010
,
0001
0100
0001
0100
0010
0001
1000
0001
,
0100
0010
0001
0100
0001
0100
0010
0001
,
1000
0001
0100
0010
0001
1000
0001
0100
,
0010
1000
0100
0001
0000
0010
0100
0001
,
0000
0001
0000
0001
0000
0100
0010
0000
,
0100
0001
0000
0100
0000
0001
0200
0300
,
0000
0100
0000
1000
0000
0100
0000
0001
,
0010
0100
0001
0010
0000
0100
0001
1000
,
0100
0001
0000
0010
0001
0100
0010
0001
,
1000
0100
0100
0001
0010
1000
0001
0100
,
0000
0001
0000
0100
0010
0001
0100
1000
,
0100
0001
0000
0000
,
0000
0000
0000
0000
0100
0010
0001
0100
,
0010
0001
0100
0000
0000
0000
0000
0000
,
0000
0000
0100
0001
0010
0000
0100
0000
,
0001
1000
0001
0000
,
0000
0000
0000
0000
1000
0100
0001
0100
,
0010
0001
0100
0000
1000
0000
0000
0000
,
0000
0000
0000
0000
0001
0100
0001
0100
,
1000
0100
0001
0000
0010
0000
0000
0000
,
0000
0000
0000
0000
0100
0010
0001
0100
,
0000
1000
0100
0000
0001
0000
0020
0000
,
0000
0000
0030
0000
0100
0010
0001
1000
,
0001
0100
0010
0000
0001
0000
0000
0000
,
0000
0000
0000
0000
0001
0100
0001
0100
,
0010
0001
1000
0010
0100
1000
0000
0001
,
0000
0010
0010
0010
0001
0100
0110
0110
,
0001
0100
0001
0100
0010
0001
0100
1000
,
0010
0100
0000
0000
0001
0100
0010
0001
,
1000
0001
0100
0010
0001
0100
0001
0100
,
0010
0001
1000
0001
0100
0010
0001
0100
,
1000
0100
0010
0001
0100
0001
0100
0010
,
0001
1000
0001
0100
0010
0001
0100
0001
,
0100
0010
0001
1000
0001
0100
0010
0001
,
0100
0001
0100
0010
0001
1000
0001
0100
,
0010
0001
0100
0001
0100
0010
0001
1000
,
0001
0100
0010
0001
0100
0001
0100
0001
,
0010
0100
0001
1000
0001
0100
0010
0001
,
0100
0001
0100
0010
0001
1000
0001
0100
,
0010
0001
0100
0001
0100
0010
0001
1000
,
0001
0100
0010
0001
0100
0001
0100
0010
,
0001
1000
0001
0100
0010
0001
0100
0001
,
0100
0010
0001
1000
0001
0100
0010
0000
,
1000
0001
0100
0010
0001
0100
1000
0010
,
0010
0001
0100
0010
0001
0100
1000
0001
,
0100
0010
0001
0100
0001
0100
0010
0001
,
1000
0001
0100
0010
0001
1000
0001
0100
,
0010
0001
0100
0001
0100
0010
0001
1000
,
0001
0100
0010
0001
1000
0001
0100
0010
,
1000
0100
0001
0010
0010
0100
0001
0100
,
0010
0100
0001
0010
1000
0001
0100
0000
;

//---------------dance-single - ----------------
#NOTEDATA:;
#CHARTNAME:;
#STEPSTYPE:dance-single;
#DESCRIPTION:;
#CHARTSTYLE:;
#DIFFICULTY:Medium;
#METER:9;
#RADARVALUES:0.387763,0.537257,0.021041,0.056110,0.000000,387.000000,384.000000,3.000000,8.000000,0.000000,0.000000,0.000000,0.000000,0.000000,0.387763,0.537257,0.021041,0.056110,0.000000,387.000000,384.000000,3.000000,8.000000,0.000000,0.000000,0.000000,0.000000,0.000000;
#CREDIT:;
#NOTES:
0000
0000
0000
0000
,
0000
0000
0000
0000
,
0000
0000
0000
0000
,
0000
0000
0000
0000
,
0000
0000
0000
0000
,
0000
0000
0000
0000
,
0000
0000
0000
0000
,
0000
0000
0000
0000
,
0020
0000
0000
0000
,
0000
0000
0000
0030
,
0200
0000
0000
0000
,
0000
0000
0000
0300
,
0002
0000
0000
0000
,
0000
0000
0000
0003
,
2000
0000
0000
0000
,
0000
0000
0000
3000
,
0100
0001
0010
0000
,
0000
0000
0000
0000
0010
0001
0100
0000
,
0010
0001
0100
0000
1000
0000
0000
0000
,
0000
0001
0100
0010
,
0001
0100
1000
0000
,
0000
0000
0100
0010
,
0001
1000
0100
0000
0010
0000
0000
0000
,
0000
0000
0001
0010
,
0001
0000
0100
0000
0010
0001
0100
0000
,
0100
0000
0010
0000
0001
0100
1000
0000
,
0100
0000
0010
0000
0001
0100
2002
0000
,
0000
0000
0000
3003
,
0100
0000
0010
0000
0001
0100
1000
0000
,
0100
0000
0010
0000
0010
0100
0001
0000
,
0100
0000
1000
0000
0001
0100
0010
0000
,
0000
0100
0000
0010
0000
0001
0100
0000
,
0001
0000
0100
0000
0010
0001
0100
0001
,
0100
1000
0100
0000
0010
0100
0100
0001
,
1000
0000
0010
0000
0100
0001
1000
0001
,
0010
0000
0010
0000
0100
0010
0001
1000
,
0100
0000
0010
0000
0100
0010
0001
1000
,
0100
0000
0001
0000
0100
0010
0001
0100
,
1000
0000
0001
0000
0100
0010
0001
0100
,
1000
0000
0010
0000
0100
0010
0001
0100
,
1000
0100
0001
0000
0010
0000
0100
0001
,
1000
0000
0100
0000
0010
0000
0100
0001
,
1000
0000
0001
0000
0100
0000
0010
0001
,
0100
0001
0100
0010
,
1000
0100
0001
0000
0010
0000
0100
0000
,
0001
0000
0100
0000
0010
0000
0001
0100
,
1000
0000
0100
0000
0010
0000
0001
0100
,
1000
0001
0100
0010
,
0100
1000
0001
0010
0000
0100
0000
0001
,
0000
0100
0000
0010
0000
0001
0000
0100
,
0001
0100
0000
1000
0000
0001
0010
0100
,
0000
0100
0000
0010
0000
0100
0001
1000
,
0100
0001
1000
0100
0000
0001
1000
0100
,
0000
0001
0000
0100
0010
0001
0100
1000
,
0100
0001
0000
1000
0000
0100
0000
0100
,
0000
0010
0001
0100
0010
0001
0100
1000
,
0010
0001
0100
0000
,
0000
0000
1000
0100
,
0001
0010
0100
0000
0001
0000
0000
0000
,
0000
0001
0100
0010
,
0100
0001
1000
0000
,
0000
0000
0000
0000
1000
0001
0100
0000
,
0010
0001
0100
0000
0010
0000
0000
0000
,
0000
0000
0001
0100
,
0010
0001
0100
0000
1000
0000
0000
0000
,
0000
0000
0001
0100
,
0001
1000
0001
0220
,
0000
0000
0000
0330
,
0010
0001
0100
0000
0010
0000
0000
0000
,
0000
0000
0001
0100
,
0010
0001
0010
0100
0001
1000
0000
0100
,
0000
0010
0000
0100
0001
1000
0001
0010
,
0100
0001
0010
0100
0000
0010
0100
0001
,
1000
0010
0100
0000
0001
1000
0100
0001
,
1000
0000
0001
0000
0100
0010
0001
0100
,
1000
0000
0001
0000
0100
0010
0001
0100
,
1000
0000
0100
0000
0010
0001
1000
0100
,
0010
0000
0001
0000
0100
0010
0001
0100
,
0100
0000
0010
0000
0001
1000
0001
0100
,
0010
0000
0001
0000
0100
0010
0001
0100
,
1000
0010
0100
0000
1000
0000
0100
0010
,
0001
0000
0100
0000
0010
0000
0001
0100
,
1000
0000
0001
0000
0100
0000
0010
0001
,
1000
0000
0100
0000
0010
0000
0001
0100
,
1000
0000
0100
0000
0010
0000
0001
0100
,
1000
0000
0100
0000
0010
0000
0001
1000
,
0100
0000
0001
0000
0100
0000
0010
0001
,
0010
0100
0010
1001
,
0100
0001
1000
0000
0100
0000
0001
0010
,
0100
0100
0010
0001
,
0100
0010
0100
0000
0001
0000
1000
0100
,
0001
0001
0100
0010
,
0001
1000
0010
0000
0010
0000
0001
0100
,
1000
0010
0001
0100
,
0010
0001
0100
1000
0010
0100
0001
1000
,
0001
0010
0100
0001
1000
0001
0010
0000
;

//---------------dance-single - ----------------
#NOTEDATA:;
#CHARTNAME:;
#STEPSTYPE:dance-single;
#DESCRIPTION:;
#CHARTSTYLE:;
#DIFFICULTY:Easy;
#METER:6;
#RADARVALUES:0.274540,0.302207,0.049097,0.084166,0.000000,274.000000,267.000000,7.000000,12.000000,0.000000,0.000000,0.000000,0.000000,0.000000,0.274540,0.302207,0.049097,0.084166,0.000000,274.000000,267.000000,7.000000,12.000000,0.000000,0.000000,0.000000,0.000000,0.000000;
#CREDIT:;
#NOTES:
0000
0000
0000
0000
,
0000
0000
0000
0000
,
0000
0000
0000
0000
,
0000
0000
0000
0000
,
0000
0000
0000
0000
,
0000
0000
0000
0000
,
0000
0000
0000
0000
,
0000
0000
0000
0000
,
0220
0000
0000
0000
,
0000
0000
0000
0330
,
2002
0000
0000
0000
,
0000
0000
0000
3003
,
0202
0000
0000
0000
,
0000
0000
0000
0303
,
0220
0000
0000
0000
,
0000
0000
0000
0330
,
1000
0100
0001
0000
,
0000
0000
0010
0100
,
0001
1000
0001
0000
,
0000
0000
0010
0100
,
0001
1000
0001
0000
,
0000
0000
0010
0100
,
0001
1000
0001
0000
,
0000
0000
0010
0100
,
0001
1000
0001
0000
,
0000
0000
0010
0100
,
0001
1000
0100
2002
,
0000
0000
0000
3003
,
0010
0100
0001
0000
,
0000
0000
0100
0010
,
0001
1000
0100
0000
,
0000
0000
0010
0001
,
1000
0001
0100
0100
,
0001
1000
0001
0010
,
0100
0001
1000
0001
,
0010
0100
0001
1000
,
0001
0010
0100
0001
,
1000
0001
0010
0100
,
0001
1000
0001
0010
,
0100
0010
0001
1000
,
0100
0010
0100
0001
,
1000
0001
0010
0100
,
0001
1000
0001
0010
,
0100
0001
1000
0001
,
0010
0100
0001
1000
,
0001
0001
0100
0010
,
0001
1000
0001
0100
,
0010
0001
0100
1000
,
0000
0010
0000
1000
,
0000
0100
0000
0001
,
0010
0000
0100
0010
,
0000
0001
0100
0010
,
1001
0000
0010
0100
,
0010
0000
0001
0100
,
1000
0000
0001
0100
,
0010
0000
0100
0010
,
0001
1000
0100
0000
,
0000
0000
0100
0010
,
0001
0100
1000
0000
,
0000
0010
0001
1000
,
0100
0001
0010
0000
,
0000
0000
0100
0010
,
0001
0100
1000
0000
,
0000
0000
0100
0001
,
1000
0001
0100
0000
,
0000
0000
0001
1000
,
0001
0010
0100
2002
,
0000
0000
0000
3003
,
0010
0100
0001
0000
,
0000
0000
0001
0100
,
0001
0100
0010
0001
,
1000
0001
0100
0010
,
0001
1000
0100
0000
,
0100
0001
1000
0001
,
0010
0100
0001
1000
,
0001
0010
0100
0001
,
1000
0001
0010
0100
,
0001
1000
0001
0010
,
0100
0001
1000
0001
,
0010
0100
0001
1000
,
0001
0010
0100
0001
,
1000
0001
0010
0100
,
0001
0001
1000
0001
,
0100
0010
0001
1000
,
0001
0100
0010
0001
,
1000
0001
0100
0010
,
0001
1000
0001
0100
,
0010
0001
0100
1000
,
0100
0010
0001
1000
,
0001
0010
0100
0001
,
1000
0001
0010
0100
,
0001
1000
0001
0010
,
0100
0001
1000
0100
,
0001
0010
0100
0001
,
1000
0001
0010
0100
,
0001
1000
0001
0010
;

//---------------dance-single - ----------------
#NOTEDATA:;
#CHARTNAME:;
#STEPSTYPE:dance-single;
#DESCRIPTION:;
#CHARTSTYLE:;
#DIFFICULTY:Beginner;
#METER:1;
#RADARVALUES:0.068134,0.133262,0.028055,0.000000,0.000000,68.000000,64.000000,4.000000,0.000000,0.000000,0.000000,0.000000,0.000000,0.000000,0.068134,0.133262,0.028055,0.000000,0.000000,68.000000,64.000000,4.000000,0.000000,0.000000,0.000000,0.000000,0.000000,0.000000;
#CREDIT:;
#NOTES:
// measure 0
0000
0000
0000
0000
,  // measure 1
0000
0000
0000
0000
,  // measure 2
0000
0000
0000
0000
,  // measure 3
0000
0000
0000
0000
,  // measure 4
0000
0000
0000
0000
,  // measure 5
0000
0000
0000
0000
,  // measure 6
0000
0000
0000
0000
,  // measure 7
0000
0000
0000
0000
,  // measure 8
0110
0000
0000
0000
,  // measure 9
0000
0000
0000
0000
,  // measure 10
1001
0000
0000
0000
,  // measure 11
0000
0000
0000
0000
,  // measure 12
0101
0000
0000
0000
,  // measure 13
0000
0000
0000
0000
,  // measure 14
1100
0000
0000
0000
,  // measure 15
0000
0000
0000
0000
,  // measure 16
0010
0000
0000
0000
,  // measure 17
0000
0000
0000
0000
,  // measure 18
0100
0000
0000
0000
,  // measure 19
0000
0000
0000
0000
,  // measure 20
0001
0000
0000
0000
,  // measure 21
0000
0000
0000
0000
,  // measure 22
1000
0000
0000
0000
,  // measure 23
0000
0000
0000
0000
,  // measure 24
0100
0000
0000
0000
,  // measure 25
0000
0000
0000
0000
,  // measure 26
0001
0000
0000
0000
,  // measure 27
0000
0000
0000
0000
,  // measure 28
0100
0000
0000
0000
,  // measure 29
0000
0000
0000
0000
,  // measure 30
0010
0000
0000
0000
,  // measure 31
0000
0000
0000
0000
,  // measure 32
0100
0000
0000
0000
,  // measure 33
0001
0000
0000
0000
,  // measure 34
1000
0000
0000
0000
,  // measure 35
0100
0000
0000
0000
,  // measure 36
0001
0000
0000
0000
,  // measure 37
0010
0000
0000
0000
,  // measure 38
0100
0000
0000
0000
,  // measure 39
0001
0000
0000
0000
,  // measure 40
1000
0000
0000
0000
,  // measure 41
0100
0000
0000
0000
,  // measure 42
0001
0000
0000
0000
,  // measure 43
0010
0000
0000
0000
,  // measure 44
0100
0000
0000
0000
,  // measure 45
0001
0000
0000
0000
,  // measure 46
1000
0000
0000
0000
,  // measure 47
0100
0000
0000
0000
,  // measure 48
0001
0000
0000
0000
,  // measure 49
0000
0000
0000
0000
,  // measure 50
0010
0000
0000
0000
,  // measure 51
0000
0000
0000
0000
,  // measure 52
1000
0000
0000
0000
,  // measure 53
0000
0000
0000
0000
,  // measure 54
0010
0000
0000
0000
,  // measure 55
0000
0000
0000
0000
,  // measure 56
0100
0000
0000
0000
,  // measure 57
0000
0000
0000
0000
,  // measure 58
0001
0000
0000
0000
,  // measure 59
0000
0000
0000
0000
,  // measure 60
1000
0000
0000
0000
,  // measure 61
0000
0000
0000
0000
,  // measure 62
0010
0000
0000
0000
,  // measure 63
0000
0000
0000
0000
,  // measure 64
0100
0000
0000
0000
,  // measure 65
0000
0000
0000
0000
,  // measure 66
0010
0000
0000
0000
,  // measure 67
0000
0000
0000
0000
,  // measure 68
1000
0000
0000
0000
,  // measure 69
0000
0000
0000
0000
,  // measure 70
0001
0000
0000
0000
,  // measure 71
0000
0000
0000
0000
,  // measure 72
0010
0000
0000
0000
,  // measure 73
0100
0000
0000
0000
,  // measure 74
0010
0000
0000
0000
,  // measure 75
0100
0000
0000
0000
,  // measure 76
0001
0000
0000
0000
,  // measure 77
1000
0000
0000
0000
,  // measure 78
0100
0000
0000
0000
,  // measure 79
0001
0000
0000
0000
,  // measure 80
0010
0000
0000
0000
,  // measure 81
0100
0000
0000
0000
,  // measure 82
0001
0000
0000
0000
,  // measure 83
1000
0000
0000
0000
,  // measure 84
0100
0000
0000
0000
,  // measure 85
0010
0000
0000
0000
,  // measure 86
0010
0000
0000
0000
,  // measure 87
0100
0000
0000
0000
,  // measure 88
0001
0000
0000
0000
,  // measure 89
1000
0000
0000
0000
,  // measure 90
0100
0000
0000
0000
,  // measure 91
0001
0000
0000
0000
,  // measure 92
0010
0000
0000
0000
,  // measure 93
0100
0000
0000
0000
,  // measure 94
0001
0000
0000
0000
,  // measure 95
1000
0000
0000
0000
;
