#VERSION:0.83;
#TITLE:man with a second face;
#SUBTITLE:;
#ARTIST:KETTAMA;
#TITLETRANSLIT:;
#SUBTITLETRANSLIT:;
#ARTISTTRANSLIT:;
#GENRE:;
#ORIGIN:;
#CREDIT:;
#BANNER:;
#BACKGROUND:;
#PREVIEWVID:;
#JACKET:;
#CDIMAGE:;
#DISCIMAGE:;
#LYRICSPATH:;
#CDTITLE:;
#MUSIC:Man With a Second Face.ogg;
#OFFSET:0.000000;
#SAMPLESTART:100.059883;
#SAMPLELENGTH:12.000000;
#SELECTABLE:YES;
#BPMS:0.000=138.000;
#STOPS:0.000=0.050;
#DELAYS:;
#WARPS:;
#TIMESIGNATURES:0.000=4=4;
#TICKCOUNTS:0.000=4;
#COMBOS:0.000=1;
#SPEEDS:0.000=1.000=0.000=0;
#SCROLLS:0.000=1.000;
#FAKES:;
#LABELS:0.000=Song Start;
#BGCHANGES:;
#KEYSOUNDS:;
#ATTACKS:
;

//---------------dance-single - ----------------
#NOTEDATA:;
#CHARTNAME:;
#STEPSTYPE:dance-single;
#DESCRIPTION:;
#CHARTSTYLE:;
#DIFFICULTY:Hard;
#METER:15;
#RADARVALUES:0.820974,0.937677,0.181142,0.014207,0.967867,1618.000000,1567.000000,51.000000,4.000000,0.000000,0.000000,0.000000,0.000000,0.000000,0.820974,0.937677,0.181142,0.014207,0.967867,1618.000000,1567.000000,51.000000,4.000000,0.000000,0.000000,0.000000,0.000000,0.000000;
#CREDIT:;
#NOTES:
// measure 0
0000
0000
0000
0000
,  // measure 1
0000
0000
0000
0000
,  // measure 2
0000
0000
0000
0000
,  // measure 3
0000
0000
0000
0000
,  // measure 4
1000
0000
0010
0000
0100
0000
0010
0000
0001
0000
0010
0000
0100
0001
0000
1000
,  // measure 5
0010
0000
0001
0000
0100
0000
0010
0000
0001
0000
0100
0000
0001
0010
0000
1000
,  // measure 6
0100
0000
0100
0000
1000
0000
0100
0000
0001
0000
0010
0000
0100
0001
0000
0010
,  // measure 7
0100
0000
0100
0000
0001
0010
0000
0000
0000
0000
1000
0000
0000
0000
0010
0000
,  // measure 8
1001
0000
0001
1000
0100
0000
0000
0001
1000
0000
0100
0001
1000
0100
0000
0001
,  // measure 9
0000
0100
1000
0000
1000
0001
0100
0000
0010
0100
0000
0001
1000
0000
0000
0000
,  // measure 10
0001
1000
0010
0100
0001
0010
0000
0100
0010
0000
0000
0100
0001
1000
0001
0010
,  // measure 11
1000
0000
0100
0000
0000
0100
0001
0100
1000
0000
0010
0100
0000
0001
1000
0100
,  // measure 12
0001
0000
0010
0100
0000
0000
0000
0001
0100
0000
0010
0001
0100
0010
0000
0001
,  // measure 13
1000
0100
0001
0000
0010
0100
1000
0000
0010
0100
0000
0001
1000
0000
0100
0001
,  // measure 14
0100
0000
0000
0100
0000
0000
1000
0000
0001
0000
0000
0100
0000
0000
0010
0000
,  // measure 15
0001
0000
0000
1000
0000
0100
0000
0000
0000
0000
0000
0000
0000
0000
0000
0000
,  // measure 16
1000
0000
0100
0010
0001
0000
0010
0001
0100
0000
0010
0100
0001
0010
1000
0100
,  // measure 17
0001
0010
0100
0000
0010
0100
0001
0000
1000
0000
0001
0000
0100
0001
0010
0100
,  // measure 18
0001
1000
0001
0100
1000
0100
0001
0000
0001
0000
0100
0010
1000
0100
0001
0100
,  // measure 19
0001
0100
0010
0100
0010
0001
1000
0100
,  // measure 20
1000
0000
0001
0010
0100
0000
0001
0100
1000
0000
0010
0100
0001
1000
0001
0010
,  // measure 21
0100
0001
0010
0000
0100
0001
1000
0000
0100
0001
0010
0000
0001
0100
0001
0100
,  // measure 22
1000
0010
0100
0001
1000
0100
0001
1000
0001
0000
0100
0010
0001
1000
0001
0100
,  // measure 23
1000
0100
0000
0000
0000
0010
0100
0001
0100
0000
0010
0100
0000
0001
0000
0000
,  // measure 24
1000
0000
0100
0001
0010
0000
0100
0001
1000
0000
0100
0001
0010
0100
0001
1000
,  // measure 25
0001
0010
1000
0100
0001
0010
0100
0000
0001
1000
0100
0000
0001
0010
0100
0001
,  // measure 26
1000
0001
0010
0100
0001
0010
0100
0001
1000
0100
0001
0100
0010
0100
0001
0100
,  // measure 27
1000
0100
0010
0000
0100
0000
0001
0000
1000
0000
0100
0000
0001
0000
0010
0000
,  // measure 28
1000
0000
0100
0001
0010
0000
0100
0001
1000
0000
0100
0001
0010
0100
0001
1000
,  // measure 29
0001
0010
0001
0000
1000
0100
0001
0000
0010
0100
0001
0000
1000
0100
0001
0100
,  // measure 30
0001
1000
0001
0010
0100
0001
1000
0001
0010
0001
0010
0100
0001
1000
0001
0010
,  // measure 31
0100
0001
0010
0000
1000
0000
0100
0000
0001
0000
0100
0000
0001
0000
0010
0000
,  // measure 32
0100
0000
0010
0100
0001
0000
1000
0100
0000
0000
0010
0100
0001
0010
0000
1000
,  // measure 33
0000
0100
0001
0100
0010
0100
0001
0000
1000
0100
0001
0000
0010
0100
0000
1000
,  // measure 34
0000
0000
0010
0100
0001
1000
0001
0000
0010
0100
0000
0001
1000
0100
0001
0100
,  // measure 35
0000
0001
0000
0000
0000
0000
0010
0001
0100
0010
0001
1000
0001
0100
1000
0100
,  // measure 36
0001
0000
1000
0100
0010
0000
0100
0001
0000
0000
0001
1000
0010
0100
0000
0001
,  // measure 37
1000
0000
0010
0100
0001
0100
0010
0001
1000
0001
0100
0010
0100
1000
0001
0100
,  // measure 38
0001
1000
0100
0001
0010
0010
0100
0001
0100
0010
0001
1000
0001
0100
0010
1000
,  // measure 39
0100
0010
0000
0110
0000
0000
0000
0000
0000
0000
0000
0000
0000
0000
0000
0000
,  // measure 40
1100
0000
0000
0101
0000
0000
0110
0000
0101
0000
0000
1100
0000
0000
0110
0000
,  // measure 41
0101
0000
0000
0110
0000
0000
1001
0000
0000
0000
0000
0101
0000
0000
1100
0000
,  // measure 42
0110
0000
0000
1100
0000
0000
0101
0000
0000
0000
0000
1001
0000
0000
0100
0010
,  // measure 43
0001
0000
0000
1010
0000
0000
0011
0000
0000
0000
0000
0110
0000
0000
0001
1000
,  // measure 44
0100
0000
0000
0110
0000
0000
0101
0000
0000
0000
0000
0110
0000
0000
0100
0010
,  // measure 45
0001
0000
0000
0110
0000
0000
1010
0000
0000
0000
0000
0100
0010
0000
0100
0001
,  // measure 46
1000
0000
0000
0101
0000
0000
0010
0001
1000
0000
0100
0000
0010
0000
0000
0001
,  // measure 47
0000
0000
0100
0000
0000
1000
0000
0000
0000
0000
0000
0000
0000
0000
0000
0000
,  // measure 48
1000
0000
0100
0000
0001
0000
0100
0000
0001
0000
0010
0000
1000
0001
0010
0100
,  // measure 49
0001
0000
0100
0000
0001
0010
0100
0000
1000
0001
0010
0000
0100
0001
1000
0001
,  // measure 50
0010
0100
0001
1000
0001
0010
0100
0001
1000
0001
0010
0100
0001
1000
0001
0010
,  // measure 51
0100
0001
0010
0000
0100
0000
0010
0000
0001
0000
1000
0000
0001
0000
0100
0000
,  // measure 52
1000
0000
0010
0000
0001
0000
1000
0000
0001
0000
0100
0000
0010
0000
0001
0100
,  // measure 53
1000
0010
0100
0000
0001
1000
0100
0000
0001
0010
0100
0000
0001
0010
1000
0001
,  // measure 54
0100
0001
0100
0001
1000
0001
0010
0100
,  // measure 55
0001
0010
0100
0010
0001
1000
0001
0100
,  // measure 56
1000
0000
0001
0000
1000
0000
0001
0000
0100
0000
0010
0000
1000
0100
0001
0010
,  // measure 57
0100
0000
0010
0000
0100
0001
0010
0000
0100
1000
0001
0000
0010
0100
0001
0000
,  // measure 58
1000
0100
0001
0010
0100
0001
1000
0001
0010
0100
0001
1000
0001
0010
0100
0001
,  // measure 59
1000
0001
0010
0000
0100
0000
0010
0000
0001
0000
1000
0000
0001
0000
0100
0000
,  // measure 60
1000
0000
0010
0000
0100
0000
0001
0000
1000
0000
0010
0000
0100
0000
0010
0001
,  // measure 61
0010
0000
0100
0000
0001
1000
0100
0000
0001
0100
0001
0000
0010
0100
0001
0000
,  // measure 62
1000
0100
0001
0100
0001
0010
0100
0001
,  // measure 63
1000
0001
0010
0100
0001
1000
0001
0000
,  // measure 64
0010
0001
0100
0001
,  // measure 65
0100
1000
0001
0100
,  // measure 66
0010
0000
0000
0001
0000
0000
0100
0000
0010
0000
0000
0000
0001
0000
0000
0000
,  // measure 67
0100
0000
0000
0010
0000
0000
0001
0000
0100
0000
0000
0000
1000
0000
0000
0000
,  // measure 68
0001
0000
0000
0100
0000
0000
0010
0000
1000
0000
0000
0000
0001
0000
0000
0000
,  // measure 69
0100
0000
0000
0010
0000
0000
0001
0000
1000
0000
0000
0000
0100
0000
0000
0000
,  // measure 70
0010
0000
0000
0001
0000
0000
0100
0000
0001
0000
0000
0000
0010
0000
0000
0000
,  // measure 71
0100
0000
0000
0001
0000
0000
1000
0000
0100
0000
0000
0000
0001
0000
0000
0000
,  // measure 72
0100
0010
0001
0010
0010
0010
0001
0100
,  // measure 73
0010
0001
1000
0001
0100
0010
0001
1000
,  // measure 74
0001
0100
0010
0001
1000
0001
0100
0010
,  // measure 75
0001
1000
0001
0100
0010
0001
1000
0001
,  // measure 76
0100
0010
0001
1000
0001
0100
0010
0001
,  // measure 77
1000
0001
0100
0010
0001
1000
0010
0100
,  // measure 78
0110
0010
0001
1000
0110
0010
0110
0010
,  // measure 79
0202
0000
0000
0303
,  // measure 80
1000
0000
0100
0001
0010
0000
0100
0001
1000
0000
0100
0001
0010
0000
0100
0001
,  // measure 81
1000
0000
0100
0001
0010
0000
0100
0001
1000
0000
0100
0001
0010
0000
0100
0001
,  // measure 82
1000
0000
0001
0010
0100
0000
1000
0001
0010
0000
0001
1000
0001
0000
0100
0001
,  // measure 83
0100
0000
0010
0001
0100
0000
0001
0010
1000
0000
0001
0100
0010
0000
0100
0010
,  // measure 84
0001
0000
1000
0100
0001
0000
0010
0100
0001
0000
1000
0100
0001
0000
0010
0100
,  // measure 85
0001
0000
0010
0100
0001
0000
1000
0100
0001
0000
0010
0100
0001
0000
1000
0100
,  // measure 86
0001
0000
0010
0100
0001
0000
1000
0100
0001
0000
0010
0100
0001
0000
1000
0100
,  // measure 87
0001
0000
0010
0100
0010
0000
0001
0100
1000
0000
0001
0100
0010
0000
1000
0100
,  // measure 88
0001
0000
0010
0100
0001
0000
1000
0100
0001
0000
0010
0100
0010
0000
0001
1000
,  // measure 89
0100
0000
0001
0010
0100
0000
0001
1000
0100
0000
0001
0010
0100
0000
0001
1000
,  // measure 90
0100
0000
0010
0100
0001
0000
1000
0100
0001
0000
0010
0100
0001
0000
1000
0100
,  // measure 91
0001
0000
0001
0100
1000
0000
0001
0100
0010
0000
0001
0100
0010
0000
0001
1000
,  // measure 92
0100
0000
0010
0100
0001
0000
1000
0100
0001
0000
0010
0100
0001
0000
1000
0100
,  // measure 93
0001
0000
0010
0100
0001
0000
1000
0100
0001
0000
0010
0100
0001
0000
1000
0100
,  // measure 94
0001
0000
0001
0100
0010
0000
0001
0100
0010
0000
0001
0100
1000
0000
0001
0100
,  // measure 95
0010
0000
0001
0100
1000
0000
0001
0010
0100
0000
0010
0001
0100
0000
0001
0000
,  // measure 96
0010
0000
0000
0001
0000
0000
0000
0000
,  // measure 97
1000
0000
0000
0100
0000
0000
0000
0000
,  // measure 98
0001
0000
0000
0100
0000
0000
0000
0000
,  // measure 99
0010
0000
0000
0000
0000
0000
0100
0000
0000
0100
1000
0000
0000
0000
0000
0000
,  // measure 100
0100
0000
0000
0010
0000
0000
0000
0000
,  // measure 101
1000
0000
0000
0001
0000
0000
0000
0000
,  // measure 102
0100
0010
0100
0001
1000
0100
0010
0001
0100
0001
1000
0001
0010
0100
0001
0010
,  // measure 103
0100
0010
0000
0000
0000
0000
0010
0000
0000
0100
0001
0000
0000
0000
0000
0000
,  // measure 104
1000
0000
0100
0001
0010
0000
0100
0001
0010
0000
0100
0001
1000
0010
0000
0100
,  // measure 105
0001
0000
0010
0100
0001
0010
0100
0000
1000
0100
0001
0000
0010
0000
0100
0000
,  // measure 106
0001
0010
0100
0001
1000
0001
0100
0010
0100
0001
1000
0001
0010
0100
0001
0100
,  // measure 107
0010
0001
0100
0000
0000
0000
1000
0000
0000
0100
0001
0010
0000
0001
1000
0100
,  // measure 108
0001
0000
0001
0100
1000
0000
0100
0001
0010
0000
0010
0100
0001
0100
0000
1000
,  // measure 109
0100
0000
0001
0010
0100
0001
1000
0000
0100
0010
0100
0000
0001
1000
0000
0100
,  // measure 110
0001
0100
0010
0001
0100
0010
0001
1000
0001
0100
0010
0001
1000
0001
0100
0010
,  // measure 111
1000
0100
0001
0100
0010
0100
0001
0100
0010
0001
1000
0001
0100
0010
0100
0001
,  // measure 112
1000
0000
0010
0001
0000
0001
0100
0000
0000
0000
0100
0010
0000
0001
0010
0000
,  // measure 113
0100
0000
1000
0001
0000
0100
1000
0000
0000
0000
0010
0100
0000
0010
1000
0000
,  // measure 114
0001
0000
0000
0100
0000
0000
0010
0000
0000
0000
1000
0001
0000
0100
0001
0000
,  // measure 115
0001
0000
0010
0100
0000
0001
1000
0000
0000
0000
0100
0001
1000
0001
0010
0100
,  // measure 116
0001
0000
0010
0100
0000
0001
1000
0000
0000
0000
0001
0010
0000
1000
0100
0000
,  // measure 117
0100
0000
0000
0010
0000
0000
0001
0000
0000
1000
0100
0000
0000
0001
0010
0000
,  // measure 118
0001
0000
0000
0100
0000
0000
1000
0000
0000
0100
0010
0000
0000
0000
0010
0100
,  // measure 119
0001
0000
0001
0100
0000
0010
0100
0000
0000
0000
0001
0010
0001
0100
1000
0100
,  // measure 120
0010
0000
0001
1000
1001
0000
0100
0010
,  // measure 121
1001
0000
0001
0100
0101
0000
1000
0001
,  // measure 122
1001
0000
0001
0100
0110
0000
0001
1000
,  // measure 123
1001
0000
0010
0100
0101
0000
0110
0000
,  // measure 124
1001
0000
0100
0010
1001
0000
0001
0100
,  // measure 125
0101
0000
0001
1000
1001
0000
0010
0100
,  // measure 126
0101
0101
0110
1001
,  // measure 127
1001
1001
1001
1001
2002
0000
3003
0000
,  // measure 128
0010
0000
0001
0100
1000
0000
0100
0001
0010
0000
0100
0001
1000
0010
0100
0001
,  // measure 129
0100
0000
0001
0010
0100
0001
1000
0000
0100
0001
0010
0000
0100
0001
1000
0100
,  // measure 130
0001
0010
0100
0001
1000
0001
0010
0100
0001
1000
0001
0010
0100
0001
1000
0001
,  // measure 131
0010
0100
0001
0000
0010
0000
0100
0000
0001
0000
1000
0000
0001
0000
0010
0000
,  // measure 132
0100
0000
0001
1000
0100
0000
0001
0010
0100
0000
0001
0010
0100
0001
1000
0001
,  // measure 133
0010
0000
0100
0001
1000
0100
0001
0000
0010
0100
0001
0000
1000
0100
0001
0100
,  // measure 134
0001
0010
0100
0001
1000
0001
0010
0100
0001
1000
0001
0010
0100
0010
1000
0001
,  // measure 135
0010
0100
0001
0000
0100
0000
0010
0000
1000
0000
0100
0000
0000
0000
0000
0000
,  // measure 136
0100
0000
0100
0001
1000
0000
0100
0001
0010
0000
0100
0001
1000
0100
0001
0100
,  // measure 137
0001
0100
0010
0100
0001
1000
0100
0000
0001
0010
0100
0001
1000
0000
0100
0001
,  // measure 138
0100
0001
1000
0001
0010
0100
0001
1000
0001
0010
0100
0001
1000
0001
0010
0100
,  // measure 139
0001
1000
0001
0000
0100
0000
0010
0000
0001
0000
1000
0000
0001
0000
0100
0000
,  // measure 140
1000
0000
0001
0100
0001
0000
0010
0100
0001
0000
1000
0100
0001
0010
0100
0001
,  // measure 141
1000
0100
0001
0100
0010
0100
0001
0000
1000
0100
0001
0010
0100
0001
0010
0000
,  // measure 142
0100
0001
1000
0100
0001
0100
0001
1000
0001
0010
0100
0001
1000
0001
0010
0100
,  // measure 143
0001
0100
0001
0000
0001
0000
1000
0000
0001
0000
0100
0000
1000
0100
0001
1000
,  // measure 144
0001
0000
0010
0100
0001
0000
1000
0100
0001
0000
0010
0100
0001
0010
1000
0100
,  // measure 145
0001
0010
0100
0000
0100
1000
0001
0000
0010
0100
0001
1000
0100
0010
0001
0000
,  // measure 146
1000
0100
0010
0001
0100
0010
0001
1000
0001
0100
0010
0001
1000
0001
0100
0001
,  // measure 147
0100
1000
1000
0000
0010
0000
0001
0000
0100
0000
0001
0000
1000
0000
0100
0000
,  // measure 148
0010
0000
0100
0001
1000
0000
0100
0001
0010
0000
0100
0001
1000
0001
0010
0100
,  // measure 149
0001
0000
0001
0100
1000
0010
0100
0000
1000
0100
0001
0100
0010
0000
0010
0100
,  // measure 150
0001
1000
0001
0010
0100
0001
1000
0001
0010
0100
0001
1000
0001
0010
0100
0001
,  // measure 151
1000
0001
0010
0000
0100
0000
0010
0000
0001
0000
0100
0000
1000
0000
0000
0000
,  // measure 152
0010
0000
0001
0100
1000
0000
0010
0100
0001
0000
1000
0001
0100
0010
0100
0001
,  // measure 153
0010
0001
0100
0000
0010
0100
0001
0000
1000
0100
0001
0010
0100
0001
0010
0000
,  // measure 154
0100
0001
1000
0001
0010
0100
0001
1000
0001
0010
0100
0001
1000
0001
0010
0100
,  // measure 155
0001
0010
0100
0000
0001
0000
0000
0000
0010
0000
0000
0000
0100
0000
0000
0000
,  // measure 156
0001
0000
0010
0100
0001
0000
1000
0100
0001
0000
0010
0100
0001
1000
0100
0001
,  // measure 157
0010
0100
0001
1000
0100
0001
0010
0000
0100
0001
1000
0010
0100
0001
1000
0100
,  // measure 158
0001
0010
0100
0001
1000
0001
0010
0100
0001
1000
0001
0010
0100
0001
1000
0001
,  // measure 159
0010
0100
0001
0100
0010
0100
0001
1000
0100
0001
0100
0001
1000
0001
0010
0100
,  // measure 160
0001
0000
0000
0000
;
