#VERSION:0.83;
#TITLE:make believe;
#SUBTITLE:;
#ARTIST:Luke Dean & Omar+;
#TITLETRANSLIT:;
#SUBTITLETRANSLIT:;
#ARTISTTRANSLIT:;
#GENRE:;
#ORIGIN:;
#CREDIT:;
#BANNER:;
#BACKGROUND:;
#PREVIEWVID:;
#JACKET:;
#CDIMAGE:;
#DISCIMAGE:;
#LYRICSPATH:;
#CDTITLE:;
#MUSIC:Luke Dean X Omar - Make Believe (Official Visualiser).ogg;
#OFFSET:0.000000;
#SAMPLESTART:100.059883;
#SAMPLELENGTH:12.000000;
#SELECTABLE:YES;
#BPMS:0.000=133.000;
#STOPS:0.000=0.100;
#DELAYS:;
#WARPS:;
#TIMESIGNATURES:0.000=4=4;
#TICKCOUNTS:0.000=4;
#COMBOS:0.000=1;
#SPEEDS:0.000=1.000=0.000=0;
#SCROLLS:0.000=1.000;
#FAKES:;
#LABELS:0.000=Song Start;
#BGCHANGES:;
#KEYSOUNDS:;
#ATTACKS:
;

//---------------dance-single - ----------------
#NOTEDATA:;
#CHARTNAME:;
#STEPSTYPE:dance-single;
#DESCRIPTION:;
#CHARTSTYLE:;
#DIFFICULTY:Hard;
#METER:15;
#RADARVALUES:0.728654,0.907122,0.118869,0.005403,0.424148,944.000000,922.000000,22.000000,1.000000,0.000000,0.000000,0.000000,0.000000,0.000000,0.728654,0.907122,0.118869,0.005403,0.424148,944.000000,922.000000,22.000000,1.000000,0.000000,0.000000,0.000000,0.000000,0.000000;
#CREDIT:;
#NOTES:
// measure 0
0000
0000
0000
0000
,  // measure 1
0000
0000
0000
0000
,  // measure 2
0000
0000
0000
0000
,  // measure 3
0000
0000
0000
0000
,  // measure 4
0010
0001
0100
0010
0001
1000
0001
0100
0010
0001
1000
0001
0100
0010
0001
1000
,  // measure 5
0001
0100
0010
0001
1000
0001
0100
0010
0001
1000
0001
0100
0010
0100
0100
1000
,  // measure 6
0001
0100
0010
0001
1000
0001
0100
0010
0001
1000
0001
0100
0001
0100
0001
0100
,  // measure 7
0010
0001
1000
0001
0100
0010
0100
0001
0100
0001
0100
0010
0001
1000
0001
0100
,  // measure 8
0010
0001
1000
0001
0100
0010
0001
0100
0001
0100
0010
0001
1000
0001
0100
0010
,  // measure 9
0001
1000
0001
0100
0010
0001
1000
0001
0100
0010
0001
1000
0001
0100
0010
0001
,  // measure 10
0100
0010
0001
1000
0001
0100
0010
0001
1000
0001
0100
0001
1000
0100
0010
0001
,  // measure 11
0100
0000
0000
0000
0010
0000
0000
0000
1000
0001
0100
0010
0001
1000
0001
0100
,  // measure 12
0010
0001
1000
0100
0010
0001
0100
0010
,  // measure 13
0001
1000
0001
0100
0010
0001
0100
0001
,  // measure 14
0100
0010
0001
1000
0001
0100
0010
0001
,  // measure 15
1000
0001
0100
0010
1000
0001
0100
0010
,  // measure 16
0001
0100
0001
0100
0010
0001
1000
0001
0100
0010
0001
1000
0001
0100
0010
0001
,  // measure 17
1000
0001
0100
0010
0100
0001
0100
0010
0001
1000
0001
0100
0010
0001
1000
0001
,  // measure 18
0100
0010
0001
1000
0001
0100
0010
0001
1000
0001
0100
0010
0001
1000
0001
0100
,  // measure 19
1000
0000
0000
0000
0000
0000
0001
1000
0010
0100
0001
0100
0001
0010
0100
0001
,  // measure 20
1000
0100
0010
0100
0001
0100
1000
0010
,  // measure 21
0001
1000
0001
0100
0010
0001
0100
0010
,  // measure 22
0001
1000
0100
0001
0100
0010
0001
1000
,  // measure 23
0001
0000
0100
0000
0010
0000
0001
0000
0100
0000
0010
0000
0100
0001
1000
0000
,  // measure 24
0001
0100
0010
0001
1000
0001
0100
0010
,  // measure 25
0001
1000
0001
0100
0010
0001
0100
0001
,  // measure 26
0100
0010
0001
1000
0001
0100
0010
0001
,  // measure 27
1000
0000
0001
0000
0100
0000
0010
0000
1000
0001
0100
0010
0001
1000
0001
0100
,  // measure 28
1000
0010
0001
0000
0010
0000
0100
0000
0001
0000
1000
0000
0010
0000
0100
0000
,  // measure 29
0001
0000
0010
0000
0100
0000
0010
0000
0001
0100
1000
0000
0001
0010
0100
0000
,  // measure 30
1000
0010
0001
0000
0010
0000
0100
0000
0010
0000
0100
0000
0001
0000
0010
0000
,  // measure 31
0010
0000
0001
0000
1000
0000
0001
0000
0100
0000
0010
0000
1000
0100
0001
0100
,  // measure 32
0001
0010
0100
0000
0001
0000
0100
0000
0001
0000
0100
0000
0010
0000
0001
0000
,  // measure 33
1000
0000
0001
0000
0100
0000
0010
0000
0001
0100
1000
0000
0001
0100
0010
0000
,  // measure 34
1000
0100
0001
0000
0010
0000
0100
0000
0010
0000
0001
0000
1000
0000
0001
0000
,  // measure 35
0100
0000
0001
0000
0100
0000
0010
0000
0100
0000
0010
0000
0001
0100
0001
0100
,  // measure 36
1000
0010
0100
0001
0100
0010
0001
1000
,  // measure 37
0001
0100
0010
0001
0100
0001
0100
0010
,  // measure 38
0001
1000
0001
0100
0010
0001
1000
0001
,  // measure 39
0100
0000
0010
0000
0001
0000
1000
0000
0001
0000
0100
0000
0010
0001
0100
0000
,  // measure 40
1000
0010
0100
0010
0100
0001
0100
0010
0001
1000
0001
0100
0010
0001
0100
0001
,  // measure 41
0100
0010
0001
1000
0001
0100
0010
0001
0100
0001
0100
0010
0001
1000
0001
0100
,  // measure 42
0010
0001
1000
0001
0100
0010
0001
0100
0001
0100
0010
0001
1000
0001
0100
0010
,  // measure 43
1000
0000
0001
0000
0100
0000
0010
0000
1000
0100
0001
0100
0001
0010
0100
0001
,  // measure 44
1000
0010
0001
0100
0010
0001
1000
0001
,  // measure 45
0100
0010
0001
0100
0001
0100
0010
0001
,  // measure 46
1000
0001
0100
0010
0001
1000
0001
0100
,  // measure 47
0010
0001
0100
0001
0100
0010
0001
1000
,  // measure 48
0001
0100
0010
0001
0100
0001
0100
0010
,  // measure 49
0001
1000
0001
0100
0010
0001
0100
0001
,  // measure 50
0100
0010
0001
1000
0001
0100
0010
0001
,  // measure 51
1000
0001
0100
0010
0001
0100
0001
0100
,  // measure 52
0010
0001
1000
0001
0100
0010
0001
0100
,  // measure 53
1000
0010
0001
0100
0010
0001
0100
0001
,  // measure 54
0100
0010
0001
1000
0001
0100
0010
0001
,  // measure 55
0100
0001
0100
0010
0001
1000
0001
0100
,  // measure 56
0010
0001
0100
0001
0100
0010
0001
1000
,  // measure 57
0001
0100
0010
0001
0100
0001
0100
0010
,  // measure 58
0001
1000
0001
0100
0010
0001
0100
0001
,  // measure 59
0100
0010
0001
1000
0001
0100
0010
0001
,  // measure 60
0100
0001
0100
0010
0001
1000
0001
0100
,  // measure 61
0010
0001
0100
0001
0100
0010
0001
1000
,  // measure 62
0001
0100
0010
0001
0100
0001
0100
0010
,  // measure 63
0001
1000
0001
0100
0010
0001
0100
0001
,  // measure 64
0100
0010
0001
1000
0001
0100
0010
0001
,  // measure 65
0100
0001
0100
0010
0001
1000
0001
0100
,  // measure 66
0010
0001
1000
0001
0100
0010
0001
1000
,  // measure 67
0001
0100
0010
0001
1000
0001
0100
0010
,  // measure 68
0110
0001
1000
0001
0100
0001
0100
1000
,  // measure 69
0010
0001
0100
0010
0001
1000
0001
0100
,  // measure 70
0110
0010
0001
1000
0001
0100
0010
0001
,  // measure 71
1000
0001
0100
0010
0001
1000
0001
0100
,  // measure 72
0110
0100
0010
0001
1000
0001
0100
0010
,  // measure 73
0110
0100
0010
0001
1000
0001
0100
0010
,  // measure 74
0110
0001
0100
1000
0110
0001
0100
0010
,  // measure 75
0101
0010
1100
0100
0110
0010
0101
0100
,  // measure 76
1100
0010
0110
0001
1001
0100
0110
0100
,  // measure 77
0100
0010
0100
0010
0001
1000
0001
0100
,  // measure 78
0010
0001
0100
0001
0100
0010
0001
1000
,  // measure 79
0001
0000
0100
0000
0010
0000
0001
0000
0100
0000
1000
0000
0001
0100
0010
0000
,  // measure 80
0001
0100
0001
0100
0010
0001
1000
0001
,  // measure 81
0100
0010
0001
1000
0001
0100
0010
0001
,  // measure 82
1000
0001
0100
0010
0001
1000
0001
0100
,  // measure 83
0010
0000
0001
0000
1000
0000
0001
0000
0100
0000
0010
0000
0001
0100
1000
0000
,  // measure 84
0001
0110
1000
0110
0001
0100
0010
0100
,  // measure 85
0001
0110
0010
1001
0010
0100
0001
0100
,  // measure 86
0010
0001
1000
0001
0100
0010
0001
1000
,  // measure 87
0001
0100
0010
0001
1000
0001
0100
0010
,  // measure 88
1000
1001
0001
1001
0010
0100
0001
1000
,  // measure 89
0001
0110
0100
1001
0100
0010
0001
1000
,  // measure 90
0001
0100
0010
0001
1000
0001
0100
0010
,  // measure 91
0100
0001
0010
0100
0001
0010
0100
0001
1000
0010
0100
0001
1000
0001
0010
0100
,  // measure 92
0001
0010
0100
0010
0001
1000
0001
0100
,  // measure 93
0010
0001
0100
0000
0010
0000
0001
0000
1000
0000
0001
0000
0010
0000
0100
0000
,  // measure 94
0001
0100
1000
0000
0100
0000
0010
0000
0001
0000
1000
0000
0001
0000
0100
0000
,  // measure 95
0010
0001
0100
0000
0010
0000
0001
0000
1000
0000
0001
0000
0100
0000
0010
0000
,  // measure 96
0001
0100
1000
0000
0010
0000
0001
0000
1000
0000
0001
0000
0100
0000
0010
0000
,  // measure 97
0001
0100
1000
0000
0010
0000
0001
0000
1000
0000
0001
0000
0100
0000
0010
0000
,  // measure 98
0001
0100
1000
0000
0010
0000
0001
0000
1000
0000
0001
0000
0100
0000
0010
0000
,  // measure 99
0001
0100
0010
0000
1000
0100
0001
0000
0010
0100
0001
1000
0001
0010
0100
0001
,  // measure 100
2000
0000
0000
0000
,  // measure 101
0000
0000
0000
3000
;
