#TITLE:main charather;
#SUBTITLE:;
#ARTIST:Chxrry;
#TITLETRANSLIT:;
#SUBTITLETRANSLIT:;
#ARTISTTRANSLIT:;
#GENRE:;
#CREDIT:;
#BANNER:;
#BACKGROUND:;
#LYRICSPATH:;
#CDTITLE:;
#MUSIC:main charather.ogg;
#OFFSET:0.000000;
#SAMPLESTART:100.059883;
#SAMPLELENGTH:12.000000;
#SELECTABLE:YES;
#BPMS:0.000000=136.000000
;
#STOPS:0.000000=1.400000
;
#BGCHANGES:;
#KEYSOUNDS:;
#ATTACKS:;

//---------------dance-single - ----------------
#NOTES:
     dance-single:
     :
     Hard:
     11:
     0.432348,0.496649,0.106377,0.042551,0.257965,569.000000,549.000000,20.000000,8.000000,0.000000,0.000000,0.432348,0.496649,0.106377,0.042551,0.257965,569.000000,549.000000,20.000000,8.000000,0.000000,0.000000:
// measure 0
0000
0000
0000
0000
,  // measure 1
0000
0000
0000
0000
,  // measure 2
1000
0000
0000
0000
0100
0001
0000
0000
0100
0001
0000
0000
1000
0100
0000
0000
,  // measure 3
0001
0010
0000
0000
0100
0001
0000
0000
0010
0000
0000
0000
0100
0000
0000
0000
,  // measure 4
1000
0001
0000
0000
0010
0000
0000
0000
0100
0000
0000
0000
0000
0000
0000
0000
,  // measure 5
1000
0001
0000
0000
1000
0000
0000
0000
0100
0000
0000
0000
0000
0000
0000
0000
,  // measure 6
0010
1000
0000
0000
0001
0000
0000
0000
0010
0000
0000
0000
0100
0000
0010
0000
,  // measure 7
1001
0000
0000
0000
0010
0100
0000
0000
0100
0000
0000
0000
0010
0000
0000
0000
,  // measure 8
0010
0000
0000
0000
1000
0001
0000
0000
0100
0010
0000
0000
0100
0010
0000
0000
,  // measure 9
0010
0001
0000
0000
0001
0010
0000
0000
0100
0000
0000
0000
1000
0000
0000
0000
,  // measure 10
0010
0000
0000
0000
0010
0001
0000
0000
0010
0100
0000
0000
0100
1000
0000
0000
,  // measure 11
0001
0010
0000
0000
0010
0100
0000
0000
0001
0000
0000
0000
0010
0000
0000
0000
,  // measure 12
0001
0100
0000
0000
0010
0000
0000
0000
0100
0000
0000
0000
0000
0000
0000
0000
,  // measure 13
0100
0001
0000
0000
1000
0000
0000
0000
0010
0000
0000
0000
0000
0000
0000
0000
,  // measure 14
1000
0001
0000
0000
0010
0000
0000
0000
0001
0000
0000
0000
0100
0000
1000
0000
,  // measure 15
0101
0000
0000
0000
0100
0010
0000
0000
0100
0000
0000
0000
1000
0000
0000
0000
,  // measure 16
0100
0000
0010
0000
0001
0000
0100
0000
0000
0000
0000
0000
0000
0000
0000
0100
,  // measure 17
0010
0000
0001
0000
0100
0000
1000
0000
0000
0000
0000
0000
0000
0000
1000
0100
,  // measure 18
0001
0010
0100
0001
0000
1000
0000
0000
,  // measure 19
0010
0001
1000
0001
0100
0010
0001
0100
,  // measure 20
1000
0010
0001
0100
0000
0000
0000
0000
,  // measure 21
0010
0000
0001
0000
0100
0000
1000
0000
0000
0000
0000
0000
0000
0000
0000
0100
,  // measure 22
0001
0010
0100
0001
0000
0000
0000
0000
,  // measure 23
0010
0001
1000
0001
0100
0010
0001
1000
,  // measure 24
0200
0000
0000
0000
0000
1000
0301
0000
,  // measure 25
0010
0001
0100
0000
0001
0100
1000
0001
,  // measure 26
0010
0000
0010
0000
0001
0100
1000
0001
,  // measure 27
0010
0000
1000
0000
0001
0010
0100
1000
,  // measure 28
0001
0010
0100
0000
0001
1000
0100
0000
,  // measure 29
0100
0000
0010
0000
0100
0001
0000
0000
0100
0000
0001
0000
1000
0000
0010
0000
,  // measure 30
0010
0000
0001
0000
1000
0100
0000
0000
0001
0000
0100
0000
1000
0000
0010
0000
,  // measure 31
0001
0100
0001
0100
0010
0001
0100
1000
,  // measure 32
0200
0000
0000
0000
,  // measure 33
0000
0000
0300
0000
0100
0001
0100
0001
,  // measure 34
0100
0000
0010
0000
1000
0001
0100
0010
,  // measure 35
0001
0100
1000
0001
,  // measure 36
0100
0000
0000
0000
1000
0000
0000
0000
0000
0000
0000
0000
0010
0001
0000
0000
,  // measure 37
1000
0000
0100
0000
0010
0000
0100
0100
,  // measure 38
0100
0000
0000
0000
0001
0000
0000
0000
0100
0001
0000
0000
1000
0000
0010
0000
,  // measure 39
0100
0100
0100
0200
,  // measure 40
0000
0000
0000
0000
,  // measure 41
0000
0000
0300
0000
0100
0100
0100
0001
,  // measure 42
0010
0000
0010
0000
0001
0100
1000
0001
,  // measure 43
0010
0000
0000
0000
0100
0001
0000
0000
1000
0000
0000
0000
0100
0000
0100
0000
,  // measure 44
0100
0000
0000
0000
0001
0000
0000
0000
0000
0000
0000
0000
1000
0001
0000
0000
,  // measure 45
0010
0100
0001
0000
,  // measure 46
1000
0000
0000
0000
0100
0000
0000
0000
0010
0100
0000
0000
0010
0000
0001
0000
,  // measure 47
1001
1001
1001
1001
,  // measure 48
1001
0000
0000
0000
0010
0100
0000
0000
0001
1000
0000
0000
0100
0010
0000
0000
,  // measure 49
0001
0010
0000
0000
0100
0010
0000
0000
0001
0000
0000
0000
1000
0000
0000
0000
,  // measure 50
0100
0000
0000
0000
0001
0010
0000
0000
1000
0100
0000
0000
0100
0010
0000
0000
,  // measure 51
0001
0010
0000
0000
0100
0001
0000
0000
1000
0000
0000
0000
0100
0000
0000
0000
,  // measure 52
0001
0010
0000
0000
0100
0000
0000
0000
0001
0000
0000
0000
0000
0000
0000
0000
,  // measure 53
1000
0100
0000
0000
0001
0000
0000
0000
0010
0000
0000
0000
0000
0000
0000
0000
,  // measure 54
0100
0001
0000
0000
0010
0000
0000
0000
0100
0000
0000
0000
0000
0000
0000
0000
,  // measure 55
0101
0000
0000
0000
1000
0001
0000
0000
0010
0000
0000
0000
0100
0000
0001
0000
,  // measure 56
0010
0000
1000
0100
0000
0001
0010
0000
0000
0000
0001
0000
0100
0000
0010
0000
,  // measure 57
0001
0000
0010
0100
0000
0001
0010
0000
0000
0000
0010
0000
0100
0000
0001
0000
,  // measure 58
1000
0000
0010
0100
0000
0010
0100
0000
0000
0000
0001
0000
1000
0000
0001
0000
,  // measure 59
0010
0000
0100
0001
0000
0010
0100
0000
1000
0000
0010
0000
0001
0000
0100
0000
,  // measure 60
2000
0000
0000
0000
0000
3000
0010
0001
,  // measure 61
0100
0000
0001
1000
0000
0100
0001
0000
0000
0000
0001
0000
0100
0000
1000
0000
,  // measure 62
0010
0000
0100
0001
0000
0100
1000
0000
0000
0000
0010
0000
0001
0000
0100
0000
,  // measure 63
1000
0000
0001
0010
0000
0100
0002
0000
0000
0000
0000
0000
0000
0000
0000
0000
,  // measure 64
0000
0000
0000
0000
0000
0000
0000
0003
,  // measure 65
0010
0100
0001
0000
0001
0100
1000
0100
,  // measure 66
0010
0000
0010
0000
0001
1000
0100
0001
,  // measure 67
0010
0000
0000
0000
0100
0001
1000
0001
,  // measure 68
0010
0100
0001
0000
0001
1000
0100
0000
,  // measure 69
0100
0000
0010
0000
1000
0001
0000
0000
0001
0000
0100
0000
1000
0000
0001
0000
,  // measure 70
0100
0000
0010
0000
0100
0001
0000
0000
0010
0000
0001
0000
0100
0000
1000
0000
,  // measure 71
0001
0100
0010
0001
0100
0100
0100
0001
,  // measure 72
0020
0000
0000
0000
,  // measure 73
0030
0000
0100
0001
0100
0001
0100
0001
,  // measure 74
0100
0000
0010
0000
0100
0001
1000
0001
,  // measure 75
0010
0000
0000
0000
0001
1000
0000
0000
0100
0000
0000
0000
0000
0000
0000
0000
,  // measure 76
0100
0000
0000
0000
0001
0000
0000
0000
0000
0000
0000
0000
1000
0001
0000
0000
,  // measure 77
0010
0000
0100
0000
0010
0000
1000
1000
,  // measure 78
1000
0000
0000
0000
0100
0000
0000
0000
0001
0010
0000
0000
0100
0000
0010
0000
,  // measure 79
1001
1001
1001
2002
,  // measure 80
0000
0000
0000
0000
,  // measure 81
0000
0000
3003
0000
1000
0100
1000
0100
,  // measure 82
1000
0000
0100
0000
0001
0010
0100
0001
,  // measure 83
1000
0000
0000
0000
0100
0001
0000
0000
0010
0000
0000
0000
1000
0000
1000
0000
,  // measure 84
1000
0000
0000
0000
0100
0000
0000
0000
0000
0000
0000
0000
0010
0100
0000
0000
,  // measure 85
0100
1000
0001
0000
,  // measure 86
0010
0000
0000
0000
0100
0000
0000
0000
0001
0010
0000
0000
0100
0000
0001
0000
,  // measure 87
0110
0110
0110
0110
,  // measure 88
1000
0000
0000
0000
0100
0001
0000
0000
0010
0100
0000
0000
0001
1000
0000
0000
,  // measure 89
0100
0001
0000
0000
0010
0100
0000
0000
0001
0000
0000
0000
1000
0000
0000
0000
,  // measure 90
0100
0000
0000
0000
0010
0100
0000
0000
0001
1000
0000
0000
0100
0001
0000
0000
,  // measure 91
0010
0100
0000
0000
0001
0010
0000
0000
0100
0000
0000
0000
0001
0000
0000
0000
,  // measure 92
1000
0100
0000
0000
0010
0000
0000
0000
0100
0000
0000
0000
0000
0000
0000
0000
,  // measure 93
0001
0010
0000
0000
0100
0000
0000
0000
0001
0000
0000
0000
0000
0000
0000
0000
,  // measure 94
1000
0100
0000
0000
0001
0000
0000
0000
0010
0000
0000
0000
0100
0000
0100
0000
,  // measure 95
0101
0000
0000
0000
1000
0001
0000
0000
0010
0000
0000
0000
0100
0000
0000
0000
,  // measure 96
0100
0000
0000
0000
0001
0010
0000
0000
0100
1000
0000
0000
0100
0001
0000
0000
,  // measure 97
0010
0100
0000
0000
0001
0010
0000
0000
0100
0000
0000
0000
0010
0000
0000
0000
,  // measure 98
0100
0000
0000
0000
0010
0100
0000
0000
1000
0001
0000
0000
0010
0100
0000
0000
,  // measure 99
0010
0100
0000
0000
0001
0010
0000
0000
0100
0000
0000
0000
0001
0000
0000
0000
,  // measure 100
1000
0100
0000
0000
0001
0000
0000
0000
0010
0000
0000
0000
0000
0000
0000
0000
,  // measure 101
0100
0001
0000
0000
0010
0000
0000
0000
0100
0000
0000
0000
0000
0000
0000
0000
,  // measure 102
1000
0100
0000
0000
0010
0000
0000
0000
0100
0000
0000
0000
0100
0000
0100
0000
,  // measure 103
1001
0000
0000
0000
0100
0001
0000
0000
1001
0000
0000
0000
0101
0000
0000
0000
;
