#TITLE:low key;
#SUBTITLE:;
#ARTIST:Mabel;
#TITLETRANSLIT:;
#SUBTITLETRANSLIT:;
#ARTISTTRANSLIT:;
#GENRE:;
#CREDIT:;
#BANNER:;
#BACKGROUND:;
#LYRICSPATH:;
#CDTITLE:;
#MUSIC:Mabel - Low Key (Official Audio).mp3;
#OFFSET:0.000000;
#SAMPLESTART:100.059883;
#SAMPLELENGTH:12.000000;
#SELECTABLE:YES;
#BPMS:0.000000=96.000000
;
#STOPS:0.000000=0.200000
;
#BGCHANGES:;
#KEYSOUNDS:;
#ATTACKS:;

//---------------dance-single - ----------------
#NOTES:
     dance-single:
     :
     Hard:
     11:
     0.387711,0.506436,0.000000,0.060599,0.465316,627.000000,627.000000,0.000000,14.000000,0.000000,0.000000,0.387711,0.506436,0.000000,0.060599,0.465316,627.000000,627.000000,0.000000,14.000000,0.000000,0.000000:
// measure 0
0000
0000
0000
0000
,  // measure 1
0000
0000
0000
0000
,  // measure 2
0000
0000
0000
0000
,  // measure 3
0000
0000
0000
0000
,  // measure 4
0000
0000
0000
0000
,  // measure 5
0000
0000
0000
0000
,  // measure 6
1000
0100
0001
0000
0010
0000
0100
0000
0001
0000
1000
0000
0100
0000
0001
0000
,  // measure 7
0000
0001
0100
0000
0010
0000
0001
0100
1000
0000
0001
0000
0100
0000
1000
0000
,  // measure 8
0000
0000
0000
0000
0000
0000
0000
0000
0000
0000
0000
0000
0000
0000
0000
0000
0000
0000
0100
0000
0000
0001
0000
0000
1000
0000
0000
0000
0010
0000
0000
0000
0100
0000
0000
0000
0001
0000
0000
0000
1000
0000
0000
0000
0000
0000
0000
0000
,  // measure 9
0100
0000
0000
0000
0000
0000
0000
0000
0000
0000
0000
0000
1000
0001
1000
0000
,  // measure 10
0100
0000
0000
0010
0100
0000
0000
0000
0100
0000
0000
0001
0010
0000
0000
0010
,  // measure 11
0100
0001
1000
0001
0010
0000
0100
0001
1000
0000
0010
0100
0000
0000
0000
0001
,  // measure 12
1000
0100
0010
0100
0001
0010
0001
1000
0100
0000
0010
0001
0000
0000
0000
0000
,  // measure 13
0000
0000
0000
0000
0000
0000
0000
0000
0000
0000
2000
0000
0000
0000
3000
0100
,  // measure 14
0001
0010
0001
1000
0100
0000
0010
0001
0100
0000
0001
0010
0000
0000
0010
0001
,  // measure 15
0100
0010
0001
0100
1000
0010
0100
0001
1000
0000
0001
0010
0000
0000
0002
0000
,  // measure 16
0000
0000
0000
0000
,  // measure 17
0003
0000
0000
0100
0001
0000
0000
0010
0001
0000
0000
0100
0010
0000
0001
1000
,  // measure 18
0100
0010
0100
0001
0100
0010
0001
0100
1000
0000
0010
0100
0000
0000
0010
0100
,  // measure 19
0001
0000
0001
1000
0100
0000
0001
0100
0010
0000
0100
0001
0000
0000
0020
0000
,  // measure 20
0000
0000
0000
0000
,  // measure 21
0030
0000
0000
0100
1000
0000
0000
0001
0100
0000
0000
0010
0100
0000
0000
0000
,  // measure 22
0001
0000
1000
0100
0000
0000
0010
0000
0100
0000
0001
0000
0000
0000
0000
1000
,  // measure 23
0100
0000
0001
0010
0000
0000
0001
0000
0100
0000
1000
0000
0000
0000
0000
0100
,  // measure 24
0001
1000
0100
0001
0010
0000
0100
0000
0001
0000
0000
0000
0000
0000
0000
0000
,  // measure 25
1000
0100
0001
0010
0100
0000
0001
0000
0020
0000
0000
0000
0130
0000
0000
0000
,  // measure 26
0000
0000
0000
0000
0100
0000
0000
0000
0001
0000
0010
0000
0000
0000
0000
0001
,  // measure 27
1000
0000
0100
0001
0000
0000
0001
0000
0100
0000
1000
0000
0000
0000
0000
0001
,  // measure 28
0100
0010
0001
0100
1000
0000
0100
0000
0010
0000
0000
0000
0000
0000
0000
0000
,  // measure 29
0100
0001
0010
0100
0001
0000
1000
0000
0200
0000
0000
0000
0310
0000
0000
0000
,  // measure 30
0000
0000
1000
0000
0100
0000
0001
0010
0000
0000
0001
0000
0000
0000
0000
0000
,  // measure 31
0000
1000
0100
0001
0010
0000
0001
1000
0100
0000
0000
0001
0000
0000
0000
0000
,  // measure 32
1000
0100
0001
0010
0100
0000
0010
0000
0001
0000
0000
0000
0000
0000
0000
0000
,  // measure 33
0100
0010
0001
0100
1000
0000
0001
0000
0200
0000
0000
0000
0301
0000
0000
0000
,  // measure 34
1000
0100
0001
0010
0100
0000
0000
0000
0001
0000
1000
0000
0100
0000
0010
0000
,  // measure 35
0100
0010
0001
0100
1000
0000
0100
0001
0010
0000
1000
0100
0001
0000
0000
0010
,  // measure 36
0100
0000
0000
0000
0000
0000
0000
1000
0100
0000
0000
0010
0001
0000
0000
0000
,  // measure 37
0000
0000
0000
0000
0000
0000
0000
0001
0100
0000
0000
0000
0010
0000
0000
0000
,  // measure 38
0001
0000
0000
0100
0010
0000
0000
0000
0001
0000
0000
0100
1000
0000
0000
0100
,  // measure 39
0001
1000
0000
0100
0001
0000
0010
0100
0001
0000
1000
0100
0000
0000
0000
0010
,  // measure 40
0100
0001
0000
1000
0100
0010
0000
0001
0010
0000
1000
0100
0000
0000
0000
0000
,  // measure 41
0000
0000
0000
0000
0000
0000
0000
0000
0000
0000
0200
0000
0000
0300
0000
0010
,  // measure 42
0100
0001
1000
0001
0010
0000
0100
0010
0001
0000
1000
0100
0000
0000
0010
0001
,  // measure 43
0100
0010
0001
0100
1000
0010
0100
0001
1000
0000
0100
0001
0000
0000
0020
0000
,  // measure 44
0000
0000
0000
0000
,  // measure 45
0000
0030
0000
0100
0001
0000
0000
1000
0100
0000
0000
0010
0100
0000
0000
0001
,  // measure 46
1000
0100
0001
0010
0100
0000
0010
0100
0001
0000
0010
0100
0000
0000
0010
0001
,  // measure 47
1000
0000
0100
0001
0010
0000
0001
0100
1000
0000
0100
0001
0000
0000
0020
0000
,  // measure 48
0000
0000
0000
0000
,  // measure 49
0030
0000
0000
0001
0100
0000
0000
0010
0001
0000
0000
1000
0100
0000
0000
0000
,  // measure 50
0100
0000
0001
0010
0000
0000
0100
0000
0001
0000
1000
0000
0000
0000
0000
0100
,  // measure 51
0001
0000
1000
0100
0000
0000
0001
0000
0100
0000
1000
0000
0000
0000
0100
0001
,  // measure 52
0100
0010
0001
0100
1000
0000
0001
0000
0100
0000
0000
0000
0000
0000
0000
0000
,  // measure 53
0100
0010
0001
0100
1000
0000
0001
0000
0200
0000
0000
0000
0310
0000
0000
0000
,  // measure 54
0000
0000
0000
0000
0100
0000
0000
0000
0001
0000
1000
0000
0000
0000
0000
0001
,  // measure 55
1000
0000
0100
0001
0000
0000
0001
0000
0100
0000
1000
0000
0010
0000
0000
0100
,  // measure 56
0001
1000
0100
0001
0010
0000
0100
0000
1000
0000
0000
0000
0000
0000
0000
0000
,  // measure 57
0100
0010
0001
0100
1000
0000
0001
0000
0020
0000
0000
0000
0130
0000
0000
0000
,  // measure 58
0000
0000
0010
0000
0001
0000
1000
0100
0000
0001
0000
0000
0000
0000
0000
0000
,  // measure 59
0000
1000
0100
0001
0010
0000
1000
0100
0001
0000
0000
0010
0000
0000
0000
0000
,  // measure 60
1000
0100
0001
0010
0100
0000
0001
0000
1000
0000
0000
0000
0000
0000
0000
0000
,  // measure 61
0100
0010
0001
0100
1000
0000
0010
0000
0002
0000
0000
0000
0103
0000
0000
0000
,  // measure 62
0000
0000
0000
0000
0000
0000
1000
0000
0000
0100
0000
0000
0001
0000
1000
0000
0100
0000
0001
0000
0000
0010
0000
0000
,  // measure 63
0000
0000
0000
0000
0100
0000
0000
0001
1000
0000
0000
0010
0001
0000
0000
0000
,  // measure 64
0000
0000
0000
0000
0000
0000
0000
0000
0000
1000
0000
0000
0100
0000
0000
0000
0001
0000
0000
0000
0010
0000
0000
0000
0100
0000
0000
0000
0000
0000
0001
0000
0000
0010
0000
0000
0000
0000
0000
0000
0000
0000
0000
0000
0000
0010
0000
0000
,  // measure 65
0001
0001
0000
0100
0000
0000
0000
1000
0100
0000
0000
0001
0010
0000
0000
0000
,  // measure 66
0000
0100
0010
0001
0100
1000
0010
0001
,  // measure 67
0100
0000
0010
0000
0001
0000
0100
0000
0000
0000
0000
0000
0000
0000
0000
1000
,  // measure 68
0100
0001
0000
0010
0100
0001
0000
0010
0001
0000
0000
1000
0100
0000
0000
0001
,  // measure 69
0010
0100
0000
0001
0100
1000
0010
0000
0100
0000
0001
0000
1000
0001
1000
0000
,  // measure 70
0100
0000
0001
0010
0000
0000
0001
0000
0100
0000
1000
0000
0100
0000
0001
0010
,  // measure 71
1000
0000
0100
0001
0000
0000
0001
0000
0100
0000
1000
0000
0000
0000
0000
0001
,  // measure 72
1000
0001
0100
0010
0001
0000
0100
0000
1000
0000
0000
0000
0000
0000
0000
0000
,  // measure 73
1000
0001
0100
0010
0001
0010
0100
0010
2000
0000
0000
0000
3100
0000
0000
0000
,  // measure 74
0000
0000
0000
0000
0100
0000
0000
0000
0001
0000
0010
0000
1000
0000
0100
0001
,  // measure 75
0010
0000
0100
0001
0000
0000
1000
0000
0100
0000
0001
0000
0000
0000
0000
0100
,  // measure 76
0010
0100
0001
1000
0001
0000
0100
0000
1000
0000
0000
0000
0000
0000
0000
0000
,  // measure 77
1000
0001
0100
0010
0001
0000
0100
0000
1000
0000
0100
0000
0001
0000
0000
0000
,  // measure 78
0100
0000
0010
0001
0000
0000
0001
0000
0100
0000
1000
0000
0010
0000
0001
1000
,  // measure 79
0100
0000
0010
0100
0000
0000
0001
0000
0010
0000
0100
0000
0000
0000
0000
0001
,  // measure 80
1000
0100
0001
0010
0100
0000
0010
0000
0001
0000
0000
0000
0000
0000
0000
0000
,  // measure 81
0100
0010
0001
0100
1000
0000
0001
0000
0200
0000
0000
0000
0310
0000
0000
0000
,  // measure 82
1000
0000
0100
0000
0001
0000
0010
0100
0000
0000
0001
0000
0000
0000
0000
0000
,  // measure 83
0000
1000
0100
0001
0010
0000
0100
0001
1000
0000
0000
0100
0010
0000
0001
1000
,  // measure 84
0100
0001
0100
0010
0001
0000
1000
0000
0100
0000
0000
0000
0000
0000
0000
0000
,  // measure 85
0001
0100
1000
0001
0100
0000
0010
0000
0001
0000
0100
0000
1000
0000
0010
0000
,  // measure 86
0001
0000
1000
0000
0100
0000
0010
0100
0000
0000
0001
0000
1000
0000
0000
0001
,  // measure 87
0100
0010
0100
0001
1000
0000
0100
0001
0010
0000
0000
0001
0000
0000
0000
0000
,  // measure 88
0100
0001
0010
0100
0001
0000
1000
0000
0100
0000
0000
0000
0000
0000
0000
0000
,  // measure 89
0010
0001
1000
0001
0100
0000
0010
0000
0001
0000
1000
0000
0100
0000
0001
0000
,  // measure 90
0010
0000
0000
0000
;
