#VERSION:0.83;
#TITLE:little talks;
#SUBTITLE:;
#ARTIST:Carter Walsh;
#TITLETRANSLIT:;
#SUBTITLETRANSLIT:;
#ARTISTTRANSLIT:;
#GENRE:;
#ORIGIN:;
#CREDIT:;
#BANNER:;
#BACKGROUND:;
#PREVIEWVID:;
#JACKET:;
#CDIMAGE:;
#DISCIMAGE:;
#LYRICSPATH:;
#CDTITLE:;
#MUSIC:Carter Walsh Little Talks (Extended Mix) 2025.ogg;
#OFFSET:0.000000;
#SAMPLESTART:100.059883;
#SAMPLELENGTH:12.000000;
#SELECTABLE:YES;
#BPMS:0.000=144.000;
#STOPS:0.000=0.100;
#DELAYS:;
#WARPS:;
#TIMESIGNATURES:0.000=4=4;
#TICKCOUNTS:0.000=4;
#COMBOS:0.000=1;
#SPEEDS:0.000=1.000=0.000=0;
#SCROLLS:0.000=1.000;
#FAKES:;
#LABELS:0.000=Song Start;
#BGCHANGES:;
#KEYSOUNDS:;
#ATTACKS:
;

//---------------dance-single - ----------------
#NOTEDATA:;
#CHARTNAME:;
#STEPSTYPE:dance-single;
#DESCRIPTION:;
#CHARTSTYLE:;
#DIFFICULTY:Hard;
#METER:13;
#RADARVALUES:0.650315,0.676449,0.678368,0.060696,0.201725,1275.000000,1085.000000,190.000000,17.000000,0.000000,0.000000,0.000000,0.000000,0.000000,0.650315,0.676449,0.678368,0.060696,0.201725,1275.000000,1085.000000,190.000000,17.000000,0.000000,0.000000,0.000000,0.000000,0.000000;
#CREDIT:;
#NOTES:
// measure 0
0000
0000
0000
0000
,  // measure 1
0000
0000
0000
0000
,  // measure 2
0000
0000
0000
0000
,  // measure 3
0000
0000
0000
0000
,  // measure 4
0100
0010
0001
1000
,  // measure 5
0001
0100
0010
0001
,  // measure 6
1000
0001
0100
0010
,  // measure 7
0010
0000
0000
0100
0001
0000
0000
1000
0100
0000
0000
0010
0100
0000
0000
0001
,  // measure 8
0010
0000
0100
0000
0001
0000
0100
0000
0010
0000
0000
0001
0000
0000
0100
0000
,  // measure 9
0001
0010
0001
0100
0001
0100
0001
0100
,  // measure 10
1000
0000
0010
0000
0001
0000
0100
0000
1000
0000
0000
0001
0000
0000
0010
0000
,  // measure 11
0100
1000
0001
0100
0001
1000
0001
0010
,  // measure 12
0100
0000
0001
0000
1000
0000
0001
0000
0100
0000
0000
1000
0000
0000
0001
0000
,  // measure 13
0010
0010
0001
1000
0001
0100
0001
0100
,  // measure 14
1000
0000
0010
0000
0100
0000
0001
0000
1000
0000
0000
0001
0000
0000
0010
0000
,  // measure 15
0100
0000
0000
0001
0010
0000
0000
0100
1000
0000
0000
0001
0010
0000
0000
0100
,  // measure 16
0001
0000
0001
0000
0100
0000
0010
0000
1000
0000
0000
0100
0000
0000
0001
0000
,  // measure 17
0100
0001
1000
0001
0100
0010
0001
0100
,  // measure 18
1000
0000
0010
0000
0010
0000
0100
0000
0001
0000
0000
1000
0000
0000
0100
0000
,  // measure 19
0001
0010
0100
0001
1000
0001
0010
0100
,  // measure 20
0001
0000
0100
0000
0010
0000
0100
0000
1000
0000
0000
0100
0000
0000
0001
0000
,  // measure 21
0010
0010
0001
0100
0001
0100
0001
0100
,  // measure 22
1000
0000
0100
0000
0010
0000
0001
0000
1000
0000
0000
0001
0000
0000
0010
0000
,  // measure 23
0100
0000
0000
0010
0001
0000
0000
1000
0100
0000
0000
0001
0010
0000
0000
0001
,  // measure 24
0010
0000
1000
0000
0100
0000
0001
0000
0010
0000
0000
0100
0000
0000
0001
0000
,  // measure 25
0100
0010
0001
1000
0001
0110
0001
0110
,  // measure 26
1000
0000
0010
0000
0001
0000
0100
0000
0010
0000
0000
1000
0000
0000
0001
0000
,  // measure 27
0100
0010
0001
0100
1000
1001
0001
1001
,  // measure 28
0010
0000
0001
0000
1000
0000
0100
0000
0001
0000
0000
0100
0000
0000
0010
0000
,  // measure 29
0001
1000
0001
0100
0010
0110
1000
0101
,  // measure 30
0001
0000
0010
0000
0100
0000
0010
0000
0001
0000
0000
0100
0000
0000
0001
0000
,  // measure 31
1000
0000
0000
0100
0010
0000
0000
0001
0100
0000
0000
0010
0001
0000
0000
1000
,  // measure 32
0100
0000
0001
0000
0100
0000
0000
0000
1000
0100
0001
1000
0010
0000
0100
0001
,  // measure 33
0000
0000
0000
0100
0001
0000
0010
0100
0000
0000
0000
0000
0000
0000
0001
0000
,  // measure 34
1000
0000
0001
0000
0100
0000
0010
0000
1000
0000
0100
0001
0000
0000
0100
0000
,  // measure 35
0001
0000
0000
0000
0000
0000
0000
1000
,  // measure 36
0100
0000
0000
0000
0001
0000
0000
0000
0100
0001
0000
1000
0000
0000
0100
0000
,  // measure 37
0001
0000
0010
0000
0100
0000
0001
0010
0000
0000
0000
0000
0001
0000
0100
0000
,  // measure 38
1000
0000
0000
0000
0100
0001
0000
0000
1000
0000
0100
0001
0000
0000
0010
0200
,  // measure 39
0000
0000
0000
0300
0101
0000
0101
0000
,  // measure 40
0100
0000
0000
0000
0010
0000
0000
0000
0100
0000
0001
0000
0100
0001
0000
0000
,  // measure 41
0000
1000
0000
0100
0001
0000
0000
0100
,  // measure 42
0001
0100
0010
0100
0001
0100
1000
0001
,  // measure 43
0000
0000
0000
0000
0000
0100
1000
0001
,  // measure 44
0010
0000
0000
0000
0010
0000
0000
0000
1000
0001
0000
0010
0000
0000
0000
0000
,  // measure 45
0100
0000
0001
0000
0000
0000
0100
0000
0001
0000
1000
0100
0000
0000
0000
0000
,  // measure 46
0101
0000
0000
0000
0101
0000
0000
0000
0110
0000
0000
1001
0000
0000
0110
0000
,  // measure 47
0220
0000
0330
0000
1001
0000
0000
0001
,  // measure 48
0100
0010
0001
1000
0001
0100
0010
0001
,  // measure 49
1000
0001
0100
0010
1001
0110
0001
1000
,  // measure 50
0001
0010
0100
0001
1000
0001
0010
0100
,  // measure 51
0001
0010
0100
0010
0110
1001
0001
1001
,  // measure 52
0010
0100
0001
0100
0010
0001
1000
0001
,  // measure 53
0100
0010
0001
0100
0010
1001
0001
0110
,  // measure 54
0001
0100
0010
0001
1000
0001
0100
0010
,  // measure 55
0101
0100
0110
0010
1001
0101
0010
0110
,  // measure 56
1000
0100
0001
0010
0100
0001
1000
0001
,  // measure 57
0010
0001
1000
0001
0100
0011
0001
0110
,  // measure 58
1000
0001
0100
0001
0100
0010
0001
0100
,  // measure 59
1000
0100
0001
0100
0010
1001
0100
0101
,  // measure 60
0100
0010
0001
1000
0001
0100
0010
0001
,  // measure 61
0010
0001
1000
0001
0100
0110
0010
1001
,  // measure 62
0001
0100
0010
0001
1000
0001
0010
0100
,  // measure 63
1001
0100
0001
0100
0110
0101
0110
1001
,  // measure 64
1000
0000
0000
0000
0100
0000
0000
0000
0001
0010
0000
0100
0000
0000
0001
0000
,  // measure 65
1000
0000
0000
0001
0100
0000
0010
0100
0000
0000
0000
0000
0000
0000
0100
0000
,  // measure 66
0010
0001
1000
0001
0100
0010
1000
0001
,  // measure 67
0010
0000
0000
0000
0000
1000
0100
0001
,  // measure 68
0010
0000
0000
0000
0010
0000
0000
0000
0001
0000
1000
0100
0000
0000
0000
0000
,  // measure 69
0000
0000
0000
0001
0000
0000
0010
0000
0001
0000
1000
0100
0000
0000
0000
0000
,  // measure 70
1100
0000
0000
0000
0110
0000
0000
0000
0101
0000
0000
0110
0000
0000
1001
0000
,  // measure 71
0220
0000
0330
0000
0101
0000
0000
0001
,  // measure 72
0100
0010
0001
0100
0001
0100
0010
0001
,  // measure 73
1000
0001
0100
0010
1001
0110
0001
1001
,  // measure 74
0100
0010
0001
0100
0001
0100
0010
0001
,  // measure 75
1000
0001
0100
0001
0110
1001
1000
1001
,  // measure 76
0010
0100
0001
1000
0001
0010
0100
0001
,  // measure 77
0100
0001
0010
0100
0001
0110
0001
0110
,  // measure 78
0001
0100
0010
0001
1000
0001
0100
0010
,  // measure 79
0220
0000
0000
0330
0011
0110
0000
1100
,  // measure 80
0010
0000
0001
0100
0000
0000
1000
0000
0100
0000
0100
0001
0000
0000
0010
0000
,  // measure 81
0001
0000
0100
1000
0000
0000
0001
0000
0011
0000
0100
1000
0000
0000
0011
0000
,  // measure 82
0100
0000
0001
0010
0000
0000
0100
0000
1000
0000
0100
0001
0000
0000
0010
0000
,  // measure 83
0100
0000
0001
0010
0000
0000
0100
0000
1010
0000
0100
0001
0000
0000
0110
0000
,  // measure 84
0100
0000
0001
0010
0000
0000
0100
0000
1000
0000
0001
0010
0000
0000
0100
0000
,  // measure 85
0001
0000
0010
0100
0000
0000
0001
0000
1100
0000
0010
0001
0000
0000
0110
0000
,  // measure 86
0001
0000
0010
0100
0000
0000
0001
0000
1000
0000
0100
0001
0000
0000
0010
0000
,  // measure 87
0220
0000
0000
0330
0101
1100
0000
1001
,  // measure 88
0110
0000
0000
0000
0011
0000
0000
0000
0101
0000
0001
0010
0000
0000
0100
0000
,  // measure 89
0010
0000
0100
0000
0001
0000
1000
0001
0000
0000
0000
0000
0000
0000
0000
0000
,  // measure 90
0100
0000
0001
0000
0100
0000
0001
0000
0100
0000
1000
0001
0000
0000
0010
0000
,  // measure 91
0100
0000
0000
0000
0000
0000
0100
0001
,  // measure 92
0011
0000
0000
0000
0011
0000
0000
0000
0011
0000
0100
0001
0000
0000
0001
0000
,  // measure 93
0100
0000
0010
0000
1000
0000
0100
0001
0000
0000
0000
0000
0000
0000
0100
0000
,  // measure 94
0010
0000
0001
0000
1000
0000
0001
0000
0100
0000
0010
0001
0000
0000
0100
0000
,  // measure 95
1001
0000
1001
0000
0110
0000
0101
0010
,  // measure 96
0110
0000
0000
0000
0110
0000
0000
0000
1001
0000
0000
0110
0000
0000
0101
0000
,  // measure 97
0000
0000
0100
0000
0010
0000
0100
0001
0000
0000
0000
0000
0000
0000
0100
0000
,  // measure 98
1000
0000
0001
0000
0100
0000
0010
0000
0101
0000
0000
0110
0000
0000
0202
0000
,  // measure 99
0000
0000
0000
0303
1001
0000
0000
0001
,  // measure 100
0100
0000
0001
0000
0100
0000
0001
0000
1100
0000
0000
0110
0000
0000
0101
0000
,  // measure 101
0000
0000
0000
0000
1001
0000
0000
0100
,  // measure 102
0011
0000
0000
0000
0110
0000
0000
0000
0101
0000
0000
0011
0000
0000
0011
0000
,  // measure 103
0000
0000
0000
0000
1001
0100
0001
0100
,  // measure 104
0100
0000
0000
0000
0010
0000
0000
0000
0010
0000
0100
0001
0000
0000
0000
0000
,  // measure 105
0000
0000
0000
1000
0000
0000
0001
0000
0010
0000
0100
0001
0000
0000
0000
0000
,  // measure 106
0110
0000
0000
0000
0110
0000
0000
0000
0101
0000
0000
0110
0000
0000
1001
0000
,  // measure 107
0220
0330
0101
0101
,  // measure 108
1100
0101
0110
0110
,  // measure 109
0101
0000
0101
0000
1001
0000
1001
1001
,  // measure 110
1001
0101
0110
1001
,  // measure 111
1001
0000
0101
0110
0110
0001
1000
0100
,  // measure 112
0011
0000
0000
0000
0110
0000
0000
0000
0001
0000
0010
0100
0000
0000
0000
0000
,  // measure 113
1001
0000
0010
0000
0000
0000
0100
0000
0001
0000
1000
0100
0000
0000
0101
0000
,  // measure 114
0110
0000
0000
0000
0101
0000
0000
0000
0110
0000
0000
0101
0000
0000
1001
0000
,  // measure 115
2002
0000
0000
0000
0000
3003
0000
0000
0110
0000
0000
0000
0110
0000
0001
0000
,  // measure 116
1000
0001
0010
0100
0001
0010
0001
0100
,  // measure 117
1000
0100
0001
0100
0011
1001
0100
0101
,  // measure 118
0010
0100
0001
1000
0001
0010
0100
0001
,  // measure 119
1000
0001
0010
0100
0011
0110
0001
1001
,  // measure 120
0010
0100
0001
1000
0001
0010
0100
0001
,  // measure 121
1000
0001
0010
0100
0001
0110
1000
0101
,  // measure 122
0001
0100
0010
0001
1000
0001
0010
0100
,  // measure 123
0110
0001
0110
0010
0101
0110
0000
0101
,  // measure 124
1001
0000
0010
0100
0000
0000
0001
0000
0100
0000
0010
0100
0000
0000
0001
0000
,  // measure 125
0010
0000
0100
0001
0000
0000
1000
0000
0011
0000
0100
0001
0000
0000
0110
0000
,  // measure 126
1000
0000
0100
0001
0000
0000
0010
0000
0100
0000
0001
0010
0000
0000
0100
0000
,  // measure 127
0001
0000
0010
0100
0000
0000
1000
0000
0110
0000
0001
0010
0000
0000
0110
0000
,  // measure 128
0001
0000
1000
0100
0000
0000
0001
0000
0010
0000
0001
0010
0000
0000
0100
0000
,  // measure 129
0001
0000
1000
0100
0000
0000
0001
0000
0110
0000
0001
1000
0000
0000
0100
0000
,  // measure 130
0010
0000
0100
0001
0000
0000
0010
0000
0100
0000
0001
1000
0000
0000
0100
0000
,  // measure 131
0101
0000
0010
0100
0000
0000
0001
0000
1001
0000
0010
0100
0000
0000
1001
0000
,  // measure 132
0110
0000
0001
0000
1000
0000
0001
0000
0010
0000
0000
0100
0000
0000
0001
0000
,  // measure 133
0001
1000
0001
0100
0010
0110
0001
1001
,  // measure 134
0100
0000
0010
0000
0001
0000
0100
0000
0100
0000
0000
1000
0000
0000
0010
0000
,  // measure 135
0001
1000
0001
0100
0010
0011
0010
0011
,  // measure 136
0010
0000
0100
0000
0001
0000
0100
0000
1000
0000
0000
0001
0000
0000
0010
0000
,  // measure 137
0001
1000
0001
0100
0010
1001
0100
0101
,  // measure 138
0010
0000
0100
0000
0001
0000
0100
0000
1000
0000
0000
0001
0000
0000
0010
0000
,  // measure 139
0110
1000
0101
0010
0110
0101
0110
0110
,  // measure 140
0100
0000
0001
0000
0100
0000
0010
0000
1000
0000
0000
0001
0000
0000
0010
0000
,  // measure 141
0001
1000
0001
0100
0010
1001
0100
0101
,  // measure 142
0010
0000
0100
0000
0001
0000
1000
0000
0001
0000
0000
0010
0000
0000
0100
0000
,  // measure 143
0001
0010
0100
0001
1000
0101
0010
0110
,  // measure 144
0010
0000
0001
0000
0010
0000
0100
0000
1000
0000
0000
0001
0000
0000
0010
0000
,  // measure 145
0100
0010
0001
0100
0010
1001
0001
0101
,  // measure 146
0001
0000
1000
0000
0001
0000
0100
0000
0010
0000
0000
1000
0000
0000
0001
0000
,  // measure 147
0110
0010
0101
0010
0101
0101
0110
0110
,  // measure 148
1001
0000
0010
0000
0001
0000
0100
0000
0010
0000
0000
0001
0000
0000
1000
0000
,  // measure 149
0010
0001
1000
0001
0100
0010
0001
0100
,  // measure 150
1000
0000
0010
0000
0001
0000
0100
0000
0001
0000
0000
1000
0000
0000
0100
0000
,  // measure 151
0001
0010
0100
0001
1000
0001
0010
0100
,  // measure 152
0001
0000
0100
0000
0010
0000
0100
0000
1000
0000
0000
0001
0000
0000
0010
0000
,  // measure 153
0010
0001
1000
0001
0100
0010
0001
0100
,  // measure 154
1000
0000
0001
0000
0010
0000
0100
0000
0001
0000
0000
1000
0000
0000
0100
0000
,  // measure 155
0101
1100
0110
0101
,  // measure 156
0100
1000
0100
0010
0001
0100
0001
0100
,  // measure 157
0001
0100
0010
0001
1000
0001
0100
0010
,  // measure 158
0001
0100
0001
0100
0010
0001
1000
0001
,  // measure 159
0100
0010
0001
1000
0001
0100
0010
0001
,  // measure 160
1000
0001
0100
0010
0001
1000
0001
0100
,  // measure 161
0010
0001
1000
0001
0100
0010
0001
0100
,  // measure 162
0001
0100
0010
0001
1000
0001
0100
0010
,  // measure 163
0110
0101
0101
0110
,  // measure 164
2002
0000
0000
3003
;
