#VERSION:0.83;
#TITLE:little miss;
#SUBTITLE:;
#ARTIST:Girlset;
#TITLETRANSLIT:;
#SUBTITLETRANSLIT:;
#ARTISTTRANSLIT:;
#GENRE:;
#ORIGIN:;
#CREDIT:;
#BANNER:;
#BACKGROUND:;
#PREVIEWVID:;
#JACKET:;
#CDIMAGE:;
#DISCIMAGE:;
#LYRICSPATH:;
#CDTITLE:;
#MUSIC:Little Miss.ogg;
#OFFSET:0.000000;
#SAMPLESTART:100.059883;
#SAMPLELENGTH:12.000000;
#SELECTABLE:YES;
#BPMS:0.000=102.000;
#STOPS:0.000=0.275;
#DELAYS:;
#WARPS:;
#TIMESIGNATURES:0.000=4=4;
#TICKCOUNTS:0.000=4;
#COMBOS:0.000=1;
#SPEEDS:0.000=1.000=0.000=0;
#SCROLLS:0.000=1.000;
#FAKES:;
#LABELS:0.000=Song Start;
#BGCHANGES:;
#KEYSOUNDS:;
#ATTACKS:
;

//---------------dance-single - ----------------
#NOTEDATA:;
#CHARTNAME:;
#STEPSTYPE:dance-single;
#DESCRIPTION:;
#CHARTSTYLE:;
#DIFFICULTY:Hard;
#METER:11;
#RADARVALUES:0.443548,0.538473,0.167076,0.062654,0.292383,446.000000,422.000000,24.000000,9.000000,0.000000,0.000000,0.000000,0.000000,0.000000,0.443548,0.538473,0.167076,0.062654,0.292383,446.000000,422.000000,24.000000,9.000000,0.000000,0.000000,0.000000,0.000000,0.000000;
#CREDIT:;
#NOTES:
// measure 0
0000
0000
0000
0000
,  // measure 1
0000
0000
0000
0000
,  // measure 2
1000
0000
0100
0001
0000
0010
0200
0000
0000
0300
0000
0000
0100
0001
1000
0000
,  // measure 3
0001
0100
0010
0001
1000
0001
0100
0010
,  // measure 4
0000
0000
0100
0001
0010
0000
0100
0001
0000
0000
1000
0000
0100
0001
0010
0000
,  // measure 5
0000
0000
1000
0100
0001
0100
0001
1000
0100
0000
0010
0001
1000
0000
0100
0000
,  // measure 6
0000
0000
1000
0100
0001
0100
0001
0000
0010
0000
0001
1000
0100
0000
0001
0000
,  // measure 7
0010
0000
0001
1000
0001
0100
0001
1000
0100
0000
0010
0100
0001
0000
1000
0100
,  // measure 8
0001
0010
0100
0001
1000
0000
0100
0001
0100
0000
0001
0100
1000
0000
0000
0000
,  // measure 9
0100
0000
0001
0000
1000
0010
0001
0000
0100
0000
0010
0000
0100
0000
0001
1000
,  // measure 10
0000
0000
0100
0000
0001
0010
0100
0000
0100
0000
0010
0000
1000
0000
0100
0001
,  // measure 11
0000
0000
0001
1000
0100
0000
0010
0100
0001
0000
0001
1000
0100
0000
0000
0000
,  // measure 12
1000
0100
0001
0000
0010
0000
0100
0001
1000
0000
0100
0000
0010
0000
0000
0000
,  // measure 13
0010
0001
1000
0001
,  // measure 14
0100
0000
0001
1000
0000
0000
0100
0002
,  // measure 15
0000
0000
0000
0003
0010
0100
0001
1000
,  // measure 16
0000
0000
0100
0000
0001
0000
1000
0000
0000
0000
0000
0000
0100
0000
0000
0001
,  // measure 17
0000
0000
0000
0010
0100
0001
0100
2000
,  // measure 18
0000
0000
0000
0000
0000
3000
0100
0001
,  // measure 19
0000
0000
0000
0001
0100
0001
0100
2002
,  // measure 20
0000
0000
0000
0000
0000
0000
0000
0000
0000
0000
3003
0000
0100
0001
1000
0000
,  // measure 21
0101
0000
0000
0000
0001
0100
1000
0000
0011
0000
0000
0000
0100
0010
0001
0000
,  // measure 22
1000
0000
0100
0001
0000
0010
0100
0000
0000
0000
0000
0000
0001
1000
0100
0000
,  // measure 23
0001
0100
0010
0001
1000
0001
0100
1000
,  // measure 24
0000
0000
0010
0001
0010
0000
0100
0010
0000
0000
0000
0000
0001
1000
0100
0000
,  // measure 25
0101
0000
1001
0000
0100
0001
1000
0000
0110
0000
1001
0000
0100
0001
1000
0000
,  // measure 26
0101
0000
1100
0000
0100
0000
0001
1000
0000
0000
0000
0000
0010
0001
0100
0000
,  // measure 27
1000
0100
0001
0100
0001
1000
0010
0100
,  // measure 28
0000
0000
1000
0100
0001
0000
0010
0100
0000
0000
0010
0000
0100
0001
1000
0000
,  // measure 29
0220
0000
0000
0000
0000
0000
0330
0000
0000
0000
0100
0001
1000
0000
0000
0000
,  // measure 30
1000
0000
0100
0000
0001
0000
0100
0000
0001
0000
1000
0000
0001
0000
0000
0010
0000
0000
0100
0000
0000
1001
0000
0000
,  // measure 31
0000
1000
0001
0100
0001
1000
0100
0000
,  // measure 32
0010
0000
0001
0000
1000
0000
0001
0000
0100
0000
0010
0000
0001
0000
0000
1000
0000
0000
0100
0000
0000
1001
0000
0000
,  // measure 33
0000
0000
0100
0000
0001
0000
1000
0000
0001
0000
0000
0010
0100
0000
0000
0000
,  // measure 34
0100
0000
1000
0000
0001
0000
0100
0000
0001
0000
0000
0100
1000
0000
0000
0000
,  // measure 35
0010
0001
1000
0001
0100
0001
1000
0100
,  // measure 36
0010
0000
0001
0000
0100
0000
0001
0000
1000
0000
0000
0010
0100
0000
0000
0000
,  // measure 37
0000
0100
1000
0001
0001
0000
0100
0000
,  // measure 38
0001
0000
1000
0100
0000
0000
0100
0010
,  // measure 39
0000
0000
0100
0000
0001
1000
0100
0001
0010
0000
0000
0000
0100
0000
0001
0000
,  // measure 40
0000
0000
0001
0000
1000
0000
0100
0000
0000
0000
0000
0000
0100
0000
0000
0001
,  // measure 41
0000
0000
0000
0100
0001
0001
0100
1000
,  // measure 42
0000
0000
0100
0001
0000
0000
1000
0100
,  // measure 43
0000
0000
0001
0010
0001
0100
0010
2002
,  // measure 44
0000
0000
0000
0000
0000
0000
0000
0000
0000
0000
3003
0000
0001
0100
1000
0000
,  // measure 45
1001
0000
1001
0000
0100
0001
1000
0000
0101
0000
0000
0000
0001
0100
1000
0000
,  // measure 46
0100
0000
0001
1000
0100
0000
0010
0100
0000
0000
0000
0000
0001
0100
1000
0000
,  // measure 47
0001
0100
0010
0001
1000
0001
0100
1000
,  // measure 48
0000
0000
0001
0100
1000
0000
0010
0100
0000
0000
0000
0000
0001
0010
0100
0000
,  // measure 49
1001
0000
1001
0000
0001
1000
0100
0000
0110
0000
1001
0000
0001
0100
0010
0000
,  // measure 50
1001
0000
1001
0000
0011
0000
0100
0001
0000
0000
0000
0000
1000
0100
0001
0000
,  // measure 51
0010
0100
0001
1000
0001
0010
0100
0001
,  // measure 52
0000
0000
0010
0100
0001
0000
1000
0100
0000
0000
0010
0000
0100
0001
1000
0000
,  // measure 53
0010
0000
0000
0000
0001
0000
1000
0000
0100
0000
1001
0000
0010
0100
0001
0000
,  // measure 54
0001
0000
0100
0000
0001
0000
1000
0000
0100
0000
0001
0000
1000
0100
0001
0000
,  // measure 55
0100
0000
0000
0000
0010
0000
1000
0001
0100
0000
0000
0000
0000
0000
0000
0000
,  // measure 56
1000
0000
0100
0000
0001
0010
0100
0000
0000
0000
0001
0000
0010
0001
0100
0000
,  // measure 57
0010
0000
0001
0100
1000
0000
0001
0100
,  // measure 58
0010
0000
0001
0100
1000
0000
0001
0100
,  // measure 59
0010
0000
0001
0100
1000
0000
0000
0000
;
