#VERSION:0.83;
#TITLE:last time;
#SUBTITLE:;
#ARTIST:Miles From Kinshasa;
#TITLETRANSLIT:;
#SUBTITLETRANSLIT:;
#ARTISTTRANSLIT:;
#GENRE:;
#ORIGIN:;
#CREDIT:;
#BANNER:;
#BACKGROUND:;
#PREVIEWVID:;
#JACKET:;
#CDIMAGE:;
#DISCIMAGE:;
#LYRICSPATH:;
#CDTITLE:;
#MUSIC:Last Time.ogg;
#OFFSET:0.000000;
#SAMPLESTART:100.059883;
#SAMPLELENGTH:12.000000;
#SELECTABLE:YES;
#BPMS:0.000=123.000;
#STOPS:;
#DELAYS:;
#WARPS:;
#TIMESIGNATURES:0.000=4=4;
#TICKCOUNTS:0.000=4;
#COMBOS:0.000=1;
#SPEEDS:0.000=1.000=0.000=0;
#SCROLLS:0.000=1.000;
#FAKES:;
#LABELS:0.000=Song Start;
#BGCHANGES:;
#KEYSOUNDS:;
#ATTACKS:
;

//---------------dance-single - ----------------
#NOTEDATA:;
#CHARTNAME:;
#STEPSTYPE:dance-single;
#DESCRIPTION:;
#CHARTSTYLE:;
#DIFFICULTY:Hard;
#METER:13;
#RADARVALUES:0.521237,0.545670,0.065155,0.065155,0.479775,616.000000,605.000000,11.000000,11.000000,0.000000,0.000000,0.000000,0.000000,0.000000,0.521237,0.545670,0.065155,0.065155,0.479775,616.000000,605.000000,11.000000,11.000000,0.000000,0.000000,0.000000,0.000000,0.000000;
#CREDIT:;
#NOTES:
// measure 0
0000
0000
0000
0000
,  // measure 1
0000
0000
0000
0000
,  // measure 2
0000
0000
0000
0000
,  // measure 3
0000
0000
0000
0000
,  // measure 4
1000
0000
0000
0001
0000
0000
0010
0000
0100
0000
0001
0000
1000
0000
0001
0000
,  // measure 5
0010
0000
0100
0001
0000
0000
0010
0000
1000
0000
0001
0000
0100
0000
0000
0000
,  // measure 6
0010
0000
0000
0001
0000
0000
0010
0000
0001
0000
0100
0000
0010
0000
0000
0000
,  // measure 7
0100
0000
0010
0001
0000
1000
0100
0010
0000
0000
0010
0000
0001
0000
0100
0000
,  // measure 8
1000
0000
0000
0010
0000
0000
0001
0000
0100
0000
0010
0000
0001
0000
0100
0000
,  // measure 9
1000
0000
0010
0001
0000
0000
0100
0000
0010
0000
0001
0000
0100
0000
1000
0000
,  // measure 10
1000
0000
0000
0001
0000
0000
0010
0000
0000
0000
0000
0000
0000
0000
0100
0000
,  // measure 11
0001
1000
0000
0000
0010
0100
0000
0000
0001
0010
0000
0000
1000
0000
0100
0000
,  // measure 12
0010
0100
0001
0100
0001
0000
1000
0100
0000
0000
0001
0000
0010
0000
0000
0000
,  // measure 13
0100
0001
0000
0000
1000
0010
0000
0000
0001
0100
0000
0000
0010
0000
0100
0000
,  // measure 14
0001
0010
0001
0010
0000
0000
0001
0010
0000
0000
0010
0000
0001
0000
0100
0000
,  // measure 15
1000
0010
0000
0000
0010
0001
0000
0000
0100
0010
0000
0000
0100
0000
0001
0000
,  // measure 16
0100
0010
0100
0010
0000
0000
0100
0001
0000
0000
0000
0000
0000
0000
0010
0000
,  // measure 17
0100
0001
0000
0000
0010
0100
0000
0000
0001
1000
0000
0000
0100
0000
0001
0000
,  // measure 18
0100
0010
0001
0100
0000
0000
0100
1000
0000
0000
0000
0000
0000
0000
0000
0000
,  // measure 19
0100
0001
0010
0100
0001
0000
0010
0000
0100
0000
0001
0000
1000
0000
0100
0000
,  // measure 20
0220
0330
0020
0200
,  // measure 21
0000
0000
0330
0000
0100
0010
0001
1000
,  // measure 22
0001
0100
0001
0010
0200
0000
0020
0000
,  // measure 23
0000
0000
0000
0000
0000
0000
0330
0001
,  // measure 24
0220
0330
0002
2000
,  // measure 25
0000
0000
3003
0000
0001
0100
0010
0001
,  // measure 26
1000
0001
0010
0100
0100
0001
2000
0000
,  // measure 27
0000
0000
3000
0010
0001
1000
0100
0000
,  // measure 28
0101
0000
0101
0010
0100
0001
1001
0000
,  // measure 29
0101
0000
0000
0001
0100
1000
0000
0100
,  // measure 30
0000
0000
0001
0000
0010
0000
0100
0000
0001
0000
0010
0000
0100
0000
1000
0001
,  // measure 31
0010
0000
0000
0001
0100
0010
1001
0000
,  // measure 32
0101
0000
0110
0010
0100
0001
1001
0000
,  // measure 33
0101
0000
0000
0100
0001
1000
0000
0001
,  // measure 34
0000
0001
0010
0001
0100
0010
0001
0000
,  // measure 35
1000
0000
0000
0100
0001
1000
0001
0100
,  // measure 36
0010
0100
0000
0001
0000
0000
0001
0000
0100
0000
0010
0000
0001
0000
0100
0000
,  // measure 37
1000
0001
0000
0010
0000
0000
0001
0010
0100
0000
0000
0000
0001
0000
0000
0000
,  // measure 38
1000
0001
0000
0010
0000
0000
0100
0000
0001
0000
1000
0000
0100
0000
0001
0000
,  // measure 39
1000
0001
0010
0000
0000
0100
0001
0000
0000
0000
0100
0000
0010
0000
0001
0000
,  // measure 40
0010
0000
0000
0010
0000
0000
0001
0000
1000
0000
0001
0000
0100
0000
0010
0000
,  // measure 41
1000
0100
0000
0010
0000
0100
0001
0000
0010
0000
0001
0000
0100
0000
1000
0000
,  // measure 42
0001
0010
0000
0100
0000
0000
0001
0000
0000
0000
0000
0000
0000
0000
1000
0000
,  // measure 43
0001
0010
0000
0000
0100
0001
0000
0000
1000
0100
0000
0000
0001
0000
0010
0000
,  // measure 44
0001
1000
0001
1000
0000
0000
0100
0001
0000
0000
0010
0000
0100
0000
0001
0000
,  // measure 45
0100
0001
0000
0000
0010
0100
0000
0000
0001
1000
0000
0000
0100
0000
0001
0000
,  // measure 46
0010
0100
0010
0100
0000
0000
0001
0010
0000
0000
0010
0000
0001
0000
0100
0000
,  // measure 47
1000
0001
0000
0000
0010
0100
0000
0000
0001
1000
0000
0000
0100
0000
0001
0000
,  // measure 48
0010
0100
0001
0100
0000
0000
0001
0010
0000
0000
0001
0000
0010
0000
1000
0000
,  // measure 49
0100
0001
0000
0000
0010
0100
0000
0000
0001
1000
0000
0000
0100
0000
0001
0000
,  // measure 50
0010
0100
0010
0100
0010
0000
0000
0000
0001
0000
0000
1000
0000
0000
0100
0000
,  // measure 51
0001
0000
0000
0010
0100
0000
0000
0001
1000
0000
0000
0000
0100
0000
0000
0000
,  // measure 52
0100
0000
0010
0000
0001
0000
0100
0000
1000
0001
0010
0000
0100
0000
0001
0000
,  // measure 53
1000
0000
0100
0001
1000
0000
0010
0000
0100
0000
0001
0000
0010
0000
0100
0000
,  // measure 54
0001
0100
1000
0001
0010
0000
0001
0000
1000
0000
0001
0000
0100
0000
0010
0000
,  // measure 55
0100
0010
0001
1000
0100
0000
0001
0000
0100
0000
0010
0000
0001
0000
0100
0000
,  // measure 56
1000
0000
0010
0001
0100
0000
0010
0000
0010
0100
0001
0000
0010
0100
0001
0000
,  // measure 57
1000
0000
0100
0001
0010
0000
0001
0000
0010
0000
0100
0000
0001
0000
1000
0000
,  // measure 58
0100
0000
0010
0100
0000
0001
0010
0000
0100
0000
0001
0000
1000
0000
0001
0000
,  // measure 59
0010
0000
0100
0001
0000
0010
0100
0000
0001
0000
1000
0000
0100
0000
0001
0000
,  // measure 60
0010
0000
0000
0001
0000
0000
0010
1000
0100
0000
0001
0000
0010
0000
0100
0001
,  // measure 61
0010
0000
0000
0000
0000
0010
0100
0001
1000
0000
0000
0000
0100
0000
0001
0000
,  // measure 62
0010
0000
0000
0100
0000
0000
0001
0010
0001
0000
1000
0100
0001
0000
0010
0100
,  // measure 63
0001
0000
0000
0000
0000
1000
0100
0001
0010
0000
0100
0000
0001
0000
1000
0000
,  // measure 64
0001
0000
1000
0100
0000
0001
0010
0000
0100
0000
0001
0010
0000
0100
1000
0000
,  // measure 65
0001
0000
0010
0100
0000
0001
0010
0000
1000
0000
0100
0001
0000
0010
0100
0000
,  // measure 66
0001
0000
0010
0100
0000
0001
0010
0000
1000
0000
0100
0001
0000
0010
0100
0000
,  // measure 67
0001
0010
0000
0000
0100
0001
0000
0000
1000
0100
0000
0000
0001
0000
0010
0000
,  // measure 68
0100
0001
0100
0001
0000
0000
0010
0100
0000
0000
0010
0000
0100
0000
0001
0000
,  // measure 69
1000
0001
0000
0000
0010
0100
0000
0000
0001
0010
0000
0000
1000
0000
0100
0000
,  // measure 70
0001
0010
0001
0010
0000
0000
0100
0010
0000
0000
0001
0000
0010
0000
0100
0000
,  // measure 71
0001
0010
0000
0000
0100
1000
0000
0000
0001
0010
0000
0000
0100
0000
0001
0000
,  // measure 72
0010
0100
0010
0100
0000
0000
0001
0010
0000
0000
0010
0000
0001
0000
0100
0000
,  // measure 73
1000
0010
0000
0000
0100
0001
0000
0000
0010
0100
0000
0000
0001
0000
1000
0000
,  // measure 74
0100
0010
0100
0010
0000
0000
0010
0001
0000
0000
1000
0000
0100
0000
0001
0000
,  // measure 75
0010
0100
0000
0000
1000
0001
0000
0000
0010
0100
0000
0000
0001
0000
0010
0000
,  // measure 76
0100
0010
0100
0010
0000
0000
0010
0001
0000
0000
0001
0000
0100
0000
0001
0000
,  // measure 77
0010
1000
0000
0000
0001
0010
0000
0000
0100
0001
0000
0000
0010
0000
0100
0000
,  // measure 78
0001
0010
0100
1000
0000
0000
0001
0010
0000
0000
0010
0000
0001
0000
0100
0000
,  // measure 79
1000
0001
0000
0000
0010
0100
0000
0000
0001
0010
0000
0000
0100
0000
0001
0000
,  // measure 80
0010
0001
1000
0100
0000
0000
0010
0001
0000
0000
1000
0000
0100
0000
0001
0000
,  // measure 81
0010
0100
0000
0000
0001
0010
0000
0000
1000
0100
0000
0000
0001
0000
0010
0000
,  // measure 82
0100
0001
0010
0100
0000
0000
1000
0001
0000
0000
0100
0000
0001
0000
0010
0000
,  // measure 83
1000
0100
0010
0001
;
