#VERSION:0.83;
#TITLE:keep watching;
#SUBTITLE:;
#ARTIST:Chloe;
#TITLETRANSLIT:;
#SUBTITLETRANSLIT:;
#ARTISTTRANSLIT:;
#GENRE:;
#ORIGIN:;
#CREDIT:;
#BANNER:;
#BACKGROUND:;
#PREVIEWVID:;
#JACKET:;
#CDIMAGE:;
#DISCIMAGE:;
#LYRICSPATH:;
#CDTITLE:;
#MUSIC:keep watching - Chlöe (full song).ogg;
#OFFSET:0.000000;
#SAMPLESTART:100.059883;
#SAMPLELENGTH:12.000000;
#SELECTABLE:YES;
#BPMS:0.000=111.000;
#STOPS:0.000=0.100;
#DELAYS:;
#WARPS:;
#TIMESIGNATURES:0.000=4=4;
#TICKCOUNTS:0.000=4;
#COMBOS:0.000=1;
#SPEEDS:0.000=1.000=0.000=0;
#SCROLLS:0.000=1.000;
#FAKES:;
#LABELS:0.000=Song Start;
#BGCHANGES:0.000=keep watching - Chlöe (full song).mp4=1.000=0=0=1=====,
99999=-nosongbg-=1.000=0=0=0 // don't automatically add -songbackground-
;
#KEYSOUNDS:;
#ATTACKS:
;

//---------------dance-single - ----------------
#NOTEDATA:;
#CHARTNAME:;
#STEPSTYPE:dance-single;
#DESCRIPTION:;
#CHARTSTYLE:;
#DIFFICULTY:Hard;
#METER:13;
#RADARVALUES:0.478322,0.748716,0.000000,0.041252,0.625649,487.000000,487.000000,0.000000,6.000000,0.000000,0.000000,0.000000,0.000000,0.000000,0.478322,0.748716,0.000000,0.041252,0.625649,487.000000,487.000000,0.000000,6.000000,0.000000,0.000000,0.000000,0.000000,0.000000;
#CREDIT:;
#NOTES:
// measure 0
0000
0000
0000
0000
,  // measure 1
0000
0000
0000
0000
,  // measure 2
0000
0000
0000
0000
,  // measure 3
0000
0000
0000
0000
,  // measure 4
0000
0000
0000
0000
,  // measure 5
0000
0000
0000
0000
,  // measure 6
0000
0000
0000
0000
,  // measure 7
0000
0000
0000
0000
,  // measure 8
0000
0000
0000
0000
,  // measure 9
0000
0000
0000
0000
,  // measure 10
0000
0000
0000
0000
,  // measure 11
0000
0000
0000
0000
,  // measure 12
0000
0000
0000
0000
,  // measure 13
1000
0100
0001
1000
0001
0010
0100
0001
1000
0001
0010
0100
0001
1000
0001
0010
,  // measure 14
0100
0001
0100
0010
0001
1000
0001
0100
0001
0100
1000
0010
0100
0001
1000
0001
,  // measure 15
0010
0010
0001
1000
0001
0100
0010
0001
1000
0001
0100
1000
0010
0001
0100
0010
,  // measure 16
0001
1000
0001
0100
0100
0010
0001
1000
0001
0100
0010
0001
1000
0001
0100
0010
,  // measure 17
0001
1000
0001
0100
0001
0100
0010
0001
1000
0001
0100
0010
1000
0000
0100
0000
,  // measure 18
0001
0000
0001
0100
0010
0000
0001
0100
,  // measure 19
1000
0010
0001
0100
1000
0000
0001
0100
,  // measure 20
0000
0001
0000
0000
0001
0000
0100
0000
1000
0000
0000
0000
0100
0000
0001
1000
,  // measure 21
0100
0000
0001
0100
0010
0000
1000
0000
0100
0000
0000
0010
0001
0100
0001
0100
,  // measure 22
0010
0001
1000
0001
0100
0010
0100
0001
1000
0000
0000
0000
0001
0100
0010
0001
,  // measure 23
1000
0001
0100
0010
0001
1000
0001
0100
1000
0000
0000
0000
0100
0010
0001
1000
,  // measure 24
0001
0100
0010
0001
1000
0001
0100
0000
1000
0000
0000
0000
0001
0100
0010
0001
,  // measure 25
1000
0001
0100
0010
1000
0100
0001
0010
0100
0000
0010
0001
0100
0001
1000
0000
,  // measure 26
0100
0000
0000
0000
0010
0000
0100
0001
0000
0000
0000
0000
1000
0000
0100
0001
,  // measure 27
0000
0000
0000
0000
0001
0000
0010
0100
0000
0000
0000
0000
0001
0000
0010
0100
,  // measure 28
0000
0000
0000
0000
0001
0000
0100
1000
0000
0000
0000
0000
0000
0000
0000
0000
,  // measure 29
0000
0000
0000
0000
0100
1000
0001
0010
0100
0001
1000
0001
0010
0001
1000
0001
,  // measure 30
0100
1000
0100
0001
0000
0000
1000
0000
0100
0000
0001
0000
0100
0000
0001
0000
,  // measure 31
0000
0000
0010
0100
0000
0000
0001
0000
1000
0000
0100
0000
0001
0000
0010
0000
,  // measure 32
0001
0000
1000
0100
0000
0000
0001
0000
0010
0000
0100
0000
0001
0000
1000
0000
,  // measure 33
0000
0000
0010
0100
0010
0001
0100
0001
0100
0010
0001
1000
0001
0100
0010
1000
,  // measure 34
0100
0001
0000
0000
0010
0001
1000
0001
0100
0010
0001
1000
0001
0100
1000
0000
,  // measure 35
0100
0010
0000
0000
0010
0001
0100
0001
0100
0010
0001
1000
0001
0100
1000
0000
,  // measure 36
0001
0010
0000
0000
0010
0001
1000
0001
0100
0010
0001
1000
0001
0100
1000
0000
,  // measure 37
0001
0010
0100
0010
0001
0100
1000
0000
0001
0000
0100
0000
0001
0000
0010
0000
,  // measure 38
1000
0100
0000
0000
0000
0000
0000
0000
0100
0001
1000
1000
0100
0001
0010
0000
,  // measure 39
0000
0000
0001
1000
0100
0000
0010
0000
0001
1000
0100
0001
0010
0000
0100
0000
,  // measure 40
0000
0000
0000
0000
0010
0001
1000
0001
0100
0010
0001
1000
0001
0100
1000
0000
,  // measure 41
0001
0100
0001
0100
0010
0001
1000
0001
0100
0010
0001
1000
0001
0100
1000
0000
,  // measure 42
0020
0000
0000
0000
0000
0000
0030
0000
0001
0100
0010
0001
1000
0001
0100
0000
,  // measure 43
0020
0000
0000
0000
0000
0030
0000
1000
0100
0001
0100
1000
0010
0100
0001
0000
,  // measure 44
2000
0000
0000
0000
3000
0000
0100
0000
0010
0100
0001
0000
1000
0000
0100
0000
,  // measure 45
0001
0000
0000
0010
0000
0000
0100
0000
0001
0000
0000
1000
0000
0000
0100
0000
,  // measure 46
0002
0000
0000
0000
0003
0000
0000
0010
0001
1000
0001
0100
1000
0000
0001
0000
,  // measure 47
0020
0000
0000
0000
0030
0000
0000
0010
0001
1000
0001
0100
0010
1000
0001
0100
,  // measure 48
0000
0002
0000
0000
0000
0000
0000
0000
0000
0000
0000
0000
0000
0000
0003
0000
,  // measure 49
0010
0100
0001
0000
0001
0100
0010
0000
1000
0001
0100
0000
0100
0000
1000
0000
,  // measure 50
0001
0010
0000
0000
0100
0000
0001
1000
0000
0000
0000
0000
0100
0000
0001
1000
,  // measure 51
0000
0000
0000
0000
0100
0000
0001
1000
0000
0000
0000
0000
0010
0000
0100
0001
,  // measure 52
0000
0000
0000
0000
0001
0000
0100
1000
0000
0000
0000
0000
0000
0000
0000
0000
,  // measure 53
0000
0000
0000
0000
0100
0001
1000
0001
0010
0001
1000
0001
0100
0001
0010
0000
,  // measure 54
0100
0001
0010
0100
0000
0000
0001
0000
1000
0000
0100
0000
0001
0000
0010
0000
,  // measure 55
0000
0000
0001
1000
0000
0000
0010
0000
0001
0000
0100
0000
1000
0000
0100
0000
,  // measure 56
0001
0000
1000
0100
0000
0000
0001
0000
0010
0000
0100
0000
0001
0000
1000
0000
,  // measure 57
0100
0000
0010
0001
0010
0001
0100
0010
0001
1000
0001
0100
0010
0001
0100
0001
,  // measure 58
1000
0001
0000
0000
0000
0000
0000
0000
0000
0000
0000
0000
0000
0000
0000
0000
,  // measure 59
0000
0000
0000
0000
,  // measure 60
0000
0000
0000
0000
,  // measure 61
0000
0000
0000
0000
,  // measure 62
0100
0000
0001
0010
0000
0000
0100
0000
0001
0000
1000
0000
0100
0000
0001
0000
,  // measure 63
1000
0000
0010
0100
0000
0000
0001
0000
0010
0000
0100
0000
0001
0000
0000
0000
,  // measure 64
1000
0000
0001
0010
0000
0000
0001
0000
0100
0000
0001
0000
0100
0000
1000
0000
,  // measure 65
0010
0000
0001
0100
0000
0000
0010
0000
0100
0001
0100
0010
0001
1000
0001
0100
,  // measure 66
1000
0000
0000
0000
;
