#TITLE:keep dat;
#SUBTITLE:;
#ARTIST:iCandy;
#TITLETRANSLIT:;
#SUBTITLETRANSLIT:;
#ARTISTTRANSLIT:;
#GENRE:;
#CREDIT:;
#BANNER:;
#BACKGROUND:;
#LYRICSPATH:;
#CDTITLE:;
#MUSIC:iCandy - Keep Dat Ngga.mp3;
#OFFSET:0.000000;
#SAMPLESTART:100.059883;
#SAMPLELENGTH:12.000000;
#SELECTABLE:YES;
#BPMS:0.000000=114.000000
;
#STOPS:0.000000=0.100000
;
#BGCHANGES:;
#KEYSOUNDS:;
#ATTACKS:;

//---------------dance-single - ----------------
#NOTES:
     dance-single:
     :
     Hard:
     14:
     0.613914,0.703357,0.000000,0.000000,0.582089,598.000000,598.000000,0.000000,0.000000,0.000000,0.000000,0.613914,0.703357,0.000000,0.000000,0.582089,598.000000,598.000000,0.000000,0.000000,0.000000,0.000000:
// measure 0
0000
0000
0000
0000
,  // measure 1
0000
0000
0000
0000
0000
0000
0000
0000
0000
0000
0000
0000
0000
0000
1000
0100
,  // measure 2
0001
0000
0001
0100
0010
0000
0001
0000
0100
0010
0000
0000
0100
0000
0001
1000
,  // measure 3
0100
0000
0100
0010
0001
0000
1000
0000
0100
0010
0000
0000
0100
0000
0001
1000
,  // measure 4
0100
0000
0010
0100
0001
0000
0010
0000
0100
0001
0010
0000
0100
0010
0001
1000
,  // measure 5
0100
0000
0100
0010
0001
0000
1000
0000
0100
0001
0100
0000
0001
1000
0010
0100
,  // measure 6
0001
0000
0100
0001
0010
0000
1000
0000
0100
0001
0100
0000
0001
0010
0010
0100
,  // measure 7
0001
0000
1000
0100
0001
0000
0010
0000
0100
0001
0010
0000
0100
0001
0010
1000
,  // measure 8
0100
0000
0010
0100
0001
0000
0010
0000
1000
0001
0010
0000
0100
0001
1000
0100
,  // measure 9
0001
0000
0100
1000
0010
0000
0001
0000
0100
0010
0001
0000
0010
0100
0001
0010
,  // measure 10
0100
0000
0100
0010
0001
0000
0100
0000
1000
0000
0000
0000
0100
0000
0001
1000
,  // measure 11
0100
0000
0010
0000
0001
0000
0100
0000
1000
0000
0000
0000
0100
0001
0010
0000
,  // measure 12
0100
0000
0001
0010
1000
0100
0001
0010
0100
0000
0000
0000
1000
0100
0001
0010
,  // measure 13
0100
0000
0010
0100
0001
1000
0100
0001
0010
0000
0000
0000
0100
0010
0001
1000
,  // measure 14
0100
0000
0010
0100
0001
0000
1000
0000
0100
0000
0000
0000
0001
0010
0100
0001
,  // measure 15
1000
0000
0010
0000
0001
0000
0100
0000
1000
0000
0000
0000
0100
0001
0010
0000
,  // measure 16
0100
0000
0001
0000
0010
0000
1000
0000
0100
0000
0000
0000
0001
0100
0010
0000
,  // measure 17
0100
0010
0001
0100
1000
0000
0010
0100
,  // measure 18
0001
1000
0100
0001
0010
0000
0100
0001
1000
0100
0001
0010
0010
0100
0001
0100
,  // measure 19
1000
0100
0001
0100
1000
0000
0001
0010
0100
0000
0010
0100
0001
0000
0100
0001
,  // measure 20
1000
0100
0001
0100
0001
1000
0100
0000
0001
0000
0100
0010
0001
0100
1000
0100
,  // measure 21
0001
0010
0100
0010
0001
0100
1000
0001
0100
0000
0001
0000
0000
0000
0010
0001
,  // measure 22
0100
0000
0010
0100
0001
0000
1000
0000
0100
0001
0000
0000
0010
0000
1000
0001
,  // measure 23
0010
0000
0001
0100
1000
0000
0010
0000
0100
0001
0000
0000
0000
0000
1000
0100
,  // measure 24
0001
0000
0010
0100
0001
0000
1000
0000
0100
0001
0100
0000
0010
0100
0001
1000
,  // measure 25
0100
0000
0001
0010
0100
0000
0010
0000
0100
0001
1000
0000
0100
0001
0010
0100
,  // measure 26
0001
0000
1000
0100
0001
0000
0010
0000
0100
0001
1000
0000
0010
0100
0001
1000
,  // measure 27
0001
0000
0100
0010
0001
0000
0010
0000
0100
0001
1000
0000
0100
0001
0010
0100
,  // measure 28
0001
0000
1000
0100
0001
0000
0010
0000
0100
0010
0001
0000
1000
0100
0001
0010
,  // measure 29
0100
0000
0001
0010
0100
0000
0001
0000
1000
0100
0001
0000
0010
0100
0001
0000
,  // measure 30
1000
0100
0010
0001
1000
0001
0100
0010
,  // measure 31
1000
0100
0001
0100
0010
0000
0001
0000
0100
0000
0010
0000
1000
0001
0010
0100
,  // measure 32
0001
0000
0010
0000
0001
0000
0100
0000
0001
0000
0100
0000
0010
0001
0100
0000
,  // measure 33
1000
0000
0100
0001
0010
0000
0100
0000
0001
0000
1000
0000
0100
0000
0001
0000
,  // measure 34
0010
0000
0100
0001
1000
0001
0010
0100
0001
0000
0000
0000
1000
0100
0001
0010
,  // measure 35
0100
0010
0001
0100
1000
0000
0010
0001
,  // measure 36
0100
0000
0010
0000
0001
0000
0100
0000
1000
0000
0000
0000
0100
0001
0010
0100
,  // measure 37
0001
1000
0100
0001
0010
0000
0100
0000
1000
0000
0000
0000
0001
0000
0100
0000
,  // measure 38
0010
1000
0100
0001
0010
0100
0001
0010
1000
0000
0000
0000
0100
0001
1000
0000
,  // measure 39
0100
0000
0001
0010
0100
0001
1000
0000
0010
0000
0000
0000
0010
0100
0001
0000
,  // measure 40
0010
0000
0010
0000
0001
0000
0100
0000
1000
0000
0100
0000
0001
0000
0010
0100
,  // measure 41
0001
1000
0100
0001
0010
1000
0100
0000
0001
0000
0000
0000
0000
0000
1000
0100
,  // measure 42
0001
0000
0010
0100
0001
0000
1000
0000
0100
0001
0000
0000
0010
0000
0100
0001
,  // measure 43
1000
0000
0100
0001
0010
0000
0100
0000
0001
0010
0000
0000
0100
0000
1000
0001
,  // measure 44
0010
0000
0010
0100
0001
0000
0100
0000
0010
0001
0100
0000
0100
0010
0001
1000
,  // measure 45
0100
0000
0001
0010
0100
0000
0001
0000
1000
0100
0001
0010
0100
0000
0010
0100
,  // measure 46
0001
0000
1000
0100
0001
0000
0010
0000
0100
0001
0010
0000
0100
0001
1000
0100
,  // measure 47
0001
0000
0010
0100
0001
0000
1000
0000
0001
0000
0100
0000
0010
0100
0001
1000
,  // measure 48
0100
0000
0010
0001
0100
0000
0010
0000
0100
0001
0010
0000
0001
0010
0100
0001
,  // measure 49
1000
0000
0010
0001
0100
0000
1000
0000
0010
0100
0001
0000
0100
0010
0000
0000
,  // measure 50
0100
0001
0010
0000
0001
0100
1000
0000
,  // measure 51
0001
0100
1000
0000
1000
0100
0001
0000
,  // measure 52
0010
0010
0001
0000
0001
0100
0001
0000
,  // measure 53
1000
0000
0100
0001
0010
0000
0100
0001
1000
0100
0000
0001
0000
0010
0100
0000
,  // measure 54
0001
0000
0100
0001
0000
0000
1000
0000
,  // measure 55
0100
0000
0010
0001
0000
0000
0010
0000
,  // measure 56
0010
0000
1000
0100
0000
0000
0001
0000
,  // measure 57
0010
0000
0100
0001
0000
0000
1000
0000
,  // measure 58
0010
0000
0001
0100
0000
0000
1000
0000
,  // measure 59
0100
0000
0010
0001
0000
0000
0100
0000
,  // measure 60
0010
0000
0001
0100
0000
0000
0000
0000
,  // measure 61
0100
0000
0001
0010
0000
0000
1000
0000
,  // measure 62
0010
0001
0100
0000
0010
0001
0100
0000
,  // measure 63
1000
0001
0100
0000
0010
0001
0100
0000
,  // measure 64
1000
0001
0100
0000
0010
0001
0100
0000
,  // measure 65
0100
0001
0010
0000
0000
0000
0000
0000
;

//---------------dance-single - ----------------
#NOTES:
     dance-single:
     :
     Medium:
     7:
     0.275132,0.325718,0.043118,0.000000,0.000000,268.000000,262.000000,6.000000,0.000000,0.000000,0.000000,0.275132,0.325718,0.043118,0.000000,0.000000,268.000000,262.000000,6.000000,0.000000,0.000000,0.000000:
0000
0000
0000
0000
,
0000
0000
0000
0000
,
0100
0000
0010
0100
0001
0000
0000
0000
,
1000
0000
0100
0001
0010
0000
0000
0000
,
0100
0000
0001
0010
0100
0000
0000
0000
,
1000
0000
0100
0001
0010
0000
0000
0000
,
0100
0000
0001
0010
0100
0000
0000
0000
,
1000
0000
0100
0001
0010
0000
0000
0000
,
0100
0000
0001
0010
0100
0000
0000
0000
,
1000
0000
0100
0001
0010
0000
0000
0000
,
0100
0000
0001
0010
0100
0000
0000
0000
,
0001
0000
0100
1000
0010
0000
0000
0000
,
0010
0000
0001
0100
1000
0000
0000
0000
,
0010
0000
0001
0100
1000
0000
0000
0000
,
0010
0000
0001
0100
1000
0000
0000
0000
,
0010
0000
0001
0100
1000
0000
0000
0000
,
0100
0000
0010
0001
0100
0000
0000
0000
,
0010
0000
0001
0100
1000
0000
0000
0000
,
0010
0000
0001
0100
1000
0000
0001
0100
,
0010
0000
0001
0100
1000
0000
0001
0100
,
1000
0000
0010
0001
0100
0000
0001
0100
,
1000
0000
0001
0100
0010
0000
0000
0000
,
0100
0000
0010
0001
0100
0000
0000
0000
,
0010
0000
0001
0100
1000
0000
0000
0000
,
0100
0000
0010
0001
0100
0000
0000
0000
,
1000
0000
0100
0001
0010
0000
0000
0000
,
0100
0000
0001
0010
0100
0000
0000
0000
,
1000
0000
0100
0001
0010
0000
0000
0000
,
0100
0000
0001
0010
0100
0000
0000
0000
,
1000
0000
0100
0001
0010
0000
0000
0000
,
0100
0000
0001
1000
0100
0010
0010
0000
,
0010
0000
0001
0100
1000
0000
0010
0000
,
0001
0010
0100
0100
1000
0001
0010
0000
,
0100
0010
0001
0100
,
0001
0100
0010
0001
,
1000
0001
0100
0010
,
0001
0000
1000
1000
0100
0000
0010
0000
,
0001
0100
0001
0100
,
0010
0001
0100
1000
,
0001
0010
0100
0001
,
0100
0001
0100
0010
,
0001
0100
1000
0000
,
0010
0000
0100
0001
1000
0000
0000
0000
,
0100
0000
0001
0010
0100
0000
0000
0000
,
1000
0000
0100
0001
0010
0000
0000
0000
,
0100
0000
0001
0010
0100
0000
0000
0000
,
1000
0000
0100
0001
0010
0000
0000
0000
,
0100
0000
0001
0010
0100
0000
0000
0000
,
1000
0000
0100
0001
0010
0000
0000
0000
,
0100
0000
0010
0100
0001
0000
0000
0000
,
0010
0000
0110
0000
1000
0100
0001
0000
,
0100
0000
0110
0000
1000
0100
0001
0000
,
0100
0000
0110
0000
0001
0100
1000
0000
,
0100
0100
0100
0100
,
0001
0000
0000
1000
0000
0000
0100
0000
,
0001
0000
0000
0100
0000
0000
0010
0000
,
0100
0000
0000
0001
0000
0000
1000
0000
,
0100
0000
0000
0010
0000
0000
0100
0000
,
0001
0000
0000
0010
0000
0000
0100
0000
,
0001
0000
0000
1000
0000
0000
0010
0000
,
0100
0000
0000
0001
0000
0000
1000
0000
,
0100
0000
0000
0010
0000
0000
0100
0000
,
0100
0000
0110
0000
0001
0010
0100
0000
,
0100
0000
1001
0000
0010
0100
0001
0000
,
0100
0000
0110
0000
0010
0100
0001
0000
;

//---------------dance-single - ----------------
#NOTES:
     dance-single:
     :
     Easy:
     5:
     0.221748,0.325718,0.086235,0.000000,0.000000,216.000000,204.000000,12.000000,0.000000,0.000000,0.000000,0.221748,0.325718,0.086235,0.000000,0.000000,216.000000,204.000000,12.000000,0.000000,0.000000,0.000000:
0000
0000
0000
0000
,
0000
0000
0000
0000
,
0010
0100
0001
0000
,
0010
0100
0001
0000
,
1000
0100
0001
0000
,
0010
0100
0001
0000
,
1000
0100
0001
0000
,
0010
0100
0001
0000
,
1000
0100
0001
0000
,
0010
0100
0001
0000
,
1000
0100
0001
0000
,
0010
0100
0001
0000
,
1000
0010
0001
0000
,
1000
0100
0010
0000
,
0010
0001
0100
0000
,
0001
0100
0010
0000
,
0001
0100
0010
0000
,
1000
0100
0010
0000
,
0001
0100
0010
0001
,
0100
0001
0100
0010
,
0001
1000
0001
0100
,
0010
0001
0100
0000
,
0001
0100
1000
0000
,
0100
0001
0010
0000
,
0100
0001
1000
0000
,
0100
0001
0010
0000
,
0100
0001
1000
0000
,
0001
0010
0100
0000
,
0010
0100
0001
0000
,
0100
0001
0100
0000
,
0010
0001
1000
0100
,
0010
0100
0001
1000
,
0001
0010
0001
1000
,
0100
0000
0000
0100
,
0010
0001
0100
0001
,
0100
0010
0001
1000
,
0001
0100
0010
0001
,
0100
0010
0001
0100
,
0001
0100
0010
0001
,
1000
0001
0100
0010
,
0001
1000
0001
0100
,
0010
0001
1000
0000
,
0010
0100
0001
0000
,
1000
0100
0001
0000
,
0010
0100
0001
0000
,
0010
0010
0010
0000
,
0100
0001
0010
0000
,
0100
0001
1000
0000
,
0100
0001
0010
0000
,
0010
0010
0100
0000
,
1000
1001
0010
0110
,
0001
0101
0010
0110
,
1000
1001
0100
0110
,
0000
0000
0000
0000
,
0010
0000
0100
0100
,
0100
0000
0001
0001
,
0001
0000
1000
1000
,
1000
0000
0100
0100
,
0100
0000
0001
0001
,
0001
0000
1000
1000
,
1000
0000
0100
0100
,
0100
0000
0010
0010
,
0010
0110
0001
1001
,
0010
0110
0001
1001
,
0010
0110
0100
0101
;

//---------------dance-single - ----------------
#NOTES:
     dance-single:
     :
     Beginner:
     1:
     0.063650,0.068988,0.000000,0.000000,0.000000,62.000000,62.000000,0.000000,0.000000,0.000000,0.000000,0.063650,0.068988,0.000000,0.000000,0.000000,62.000000,62.000000,0.000000,0.000000,0.000000,0.000000:
0000
0000
0000
0000
,
0000
0000
0000
0000
,
0100
0000
0000
0000
,
0001
0000
0000
0000
,
1000
0000
0000
0000
,
0100
0000
0000
0000
,
0001
0000
0000
0000
,
0010
0000
0000
0000
,
0100
0000
0000
0000
,
0001
0000
0000
0000
,
1000
0000
0000
0000
,
0100
0000
0000
0000
,
0010
0000
0000
0000
,
0001
0000
0000
0000
,
0010
0000
0000
0000
,
0100
0000
0000
0000
,
0001
0000
0000
0000
,
1000
0000
0000
0000
,
0100
0000
0000
0000
,
0001
0000
0000
0000
,
0010
0000
0000
0000
,
0100
0000
0000
0000
,
0001
0000
0000
0000
,
0010
0000
0000
0000
,
0100
0000
0000
0000
,
0001
0000
0000
0000
,
1000
0000
0000
0000
,
0100
0000
0000
0000
,
0010
0000
0000
0000
,
0100
0000
0000
0000
,
0001
0000
0000
0000
,
1000
0000
0000
0000
,
0100
0000
0000
0000
,
0001
0000
0000
0000
,
0010
0000
0000
0000
,
0100
0000
0000
0000
,
0001
0000
0000
0000
,
0010
0000
0000
0000
,
0100
0000
0000
0000
,
0001
0000
0000
0000
,
1000
0000
0000
0000
,
0100
0000
0000
0000
,
0010
0000
0000
0000
,
0100
0000
0000
0000
,
0001
0000
0000
0000
,
0010
0000
0000
0000
,
0100
0000
0000
0000
,
0001
0000
0000
0000
,
0010
0000
0000
0000
,
0100
0000
0000
0000
,
1000
0000
0000
0000
,
0001
0000
0000
0000
,
0010
0000
0000
0000
,
0000
0000
0000
0000
,
0010
0000
0000
0000
,
0100
0000
0000
0000
,
0001
0000
0000
0000
,
1000
0000
0000
0000
,
0100
0000
0000
0000
,
0001
0000
0000
0000
,
0010
0000
0000
0000
,
0100
0000
0000
0000
,
0001
0000
0000
0000
,
1000
0000
0000
0000
,
0100
0000
0000
0000
;
