#TITLE:jellyous;
#SUBTITLE:;
#ARTIST:ILLIT, & Sophie Powers;
#TITLETRANSLIT:;
#SUBTITLETRANSLIT:;
#ARTISTTRANSLIT:;
#GENRE:;
#CREDIT:;
#BANNER:;
#BACKGROUND:;
#LYRICSPATH:;
#CDTITLE:;
#MUSIC:jellyous (Feat. Sophie Powers).ogg;
#OFFSET:0.000000;
#SAMPLESTART:100.059883;
#SAMPLELENGTH:12.000000;
#SELECTABLE:YES;
#BPMS:0.000000=162.000000
;
#STOPS:0.000000=0.300000
;
#BGCHANGES:;
#KEYSOUNDS:;
#ATTACKS:;

//---------------dance-single - ----------------
#NOTES:
     dance-single:
     :
     Hard:
     15:
     0.805970,0.859056,0.343041,0.012251,0.539064,921.000000,865.000000,56.000000,2.000000,0.000000,0.000000,0.805970,0.859056,0.343041,0.012251,0.539064,921.000000,865.000000,56.000000,2.000000,0.000000,0.000000:
// measure 0
0000
0000
0000
0000
,  // measure 1
0000
0000
0000
0000
,  // measure 2
0000
0000
0000
0000
,  // measure 3
0000
0000
0000
0000
,  // measure 4
0101
0101
0110
1001
,  // measure 5
0010
0001
0100
0010
0001
0100
1000
0000
,  // measure 6
0101
0110
0101
1001
,  // measure 7
0100
0001
0100
0010
0001
0100
1000
0000
,  // measure 8
0110
1100
0110
0101
,  // measure 9
0010
0001
0100
0010
0001
0100
1000
0000
,  // measure 10
0001
0000
0100
0000
0100
0001
1000
0001
,  // measure 11
0010
0000
0010
0000
1001
1001
1001
1001
,  // measure 12
0100
0000
0010
0100
0001
0000
1000
0000
0100
0000
0010
0100
0001
0000
1000
0000
,  // measure 13
0100
0000
0001
0010
0100
0000
0001
0000
1000
0000
0000
0010
0001
0000
0100
0000
,  // measure 14
0001
0000
1000
0100
0001
0000
0010
0000
0001
0000
0010
0100
0001
0000
1000
0000
,  // measure 15
0100
0000
0001
0010
0001
0000
0100
0000
0100
0000
0001
0010
0001
0000
0100
0000
,  // measure 16
1000
0000
0010
0001
0010
0000
0100
0000
0001
0000
1000
0100
0001
0000
0010
0000
,  // measure 17
0100
0000
0010
0001
0100
0000
1000
0000
0001
0000
0100
0010
0001
0000
0100
0000
,  // measure 18
0010
0000
1000
0100
0001
0000
0010
0000
0100
0000
0001
1000
0100
0000
0100
0000
,  // measure 19
0010
0000
0001
0010
0100
0000
1000
0000
0100
0000
0001
0010
0100
0000
1000
0000
,  // measure 20
0100
0000
0010
0001
0100
0000
1000
0000
0100
0000
0001
0010
0100
0000
0001
0000
,  // measure 21
1000
0000
0010
0100
0001
0000
0010
0000
0100
0000
0001
0010
0100
0000
1000
0000
,  // measure 22
0100
0000
0010
0001
0100
0000
0010
0000
0000
0000
1000
0100
0001
0000
0010
0000
,  // measure 23
0100
0000
0001
0010
0100
0000
1000
0000
0100
0000
0001
0010
0100
0000
1000
0000
,  // measure 24
0001
0000
0100
0001
0010
0000
0001
0000
0100
0000
1000
0100
0001
0000
0010
0000
,  // measure 25
0100
0000
0010
0100
0001
0000
1000
0000
0100
0000
0010
0100
0001
0000
1000
0000
,  // measure 26
0100
0010
0100
0000
0001
0100
1000
0000
,  // measure 27
1001
1001
0110
1001
,  // measure 28
1000
0000
0100
0001
0010
0000
0100
0000
0001
0000
1000
0100
0001
0000
0010
0000
,  // measure 29
0100
0000
0010
0001
0100
0000
1000
0000
0100
0000
0001
0010
0001
0000
0010
0000
,  // measure 30
0100
0000
0100
0010
0001
0000
1000
0000
0100
0000
0001
0010
0100
0000
1000
0000
,  // measure 31
0001
0000
0010
0100
0001
0000
0010
0000
0100
0000
0001
1000
0010
0000
0100
0000
,  // measure 32
0001
0000
0010
0100
0001
0000
1000
0000
0100
0000
0001
0010
0100
0000
0001
0000
,  // measure 33
1000
0000
0001
0010
0100
0000
0001
0000
1000
0000
0100
0001
0010
0000
0100
0000
,  // measure 34
0001
1000
0010
0100
0001
0100
1000
0000
0001
0000
0100
0001
1000
0001
0010
0000
,  // measure 35
1000
0100
0001
0010
0100
0001
1000
0000
0100
0000
0001
0010
0100
0000
0001
0000
,  // measure 36
1000
0000
0100
0001
0010
0000
0100
0000
1000
0000
0001
0010
0100
0000
0001
0000
,  // measure 37
1000
0000
0010
0100
0001
0000
1000
0000
0100
0000
0001
0010
0100
0000
0001
0000
,  // measure 38
1000
0000
0010
0100
0001
0000
1000
0000
0100
0000
0001
0010
0100
0000
0001
0000
,  // measure 39
1000
0000
0010
0100
0001
0000
1000
0000
0100
0000
0001
0010
0100
0000
0001
0000
,  // measure 40
1000
0000
0010
0100
0001
0000
1000
0000
0100
0000
0001
0010
0100
0000
0001
0000
,  // measure 41
1000
0000
0100
0010
0001
0000
1000
0000
0100
0000
0001
0010
0100
0000
0001
0000
,  // measure 42
1000
0000
0001
0000
0001
0100
0010
0001
,  // measure 43
1001
0101
0110
0101
,  // measure 44
1000
0000
0000
0100
0001
0000
0010
0000
0100
0000
0000
0001
0010
0000
0100
0000
,  // measure 45
0001
0000
0000
0001
1000
0000
0100
0000
0010
0000
0000
0100
0001
0000
1000
0000
,  // measure 46
0100
0000
0000
0100
0010
0000
0001
0000
0010
0000
0000
0100
0001
0000
1000
0000
,  // measure 47
0100
0000
0000
0001
0010
0000
0100
0000
0001
0000
0000
1000
0100
0000
0001
0000
,  // measure 48
0010
0000
0000
0100
0001
0000
1000
0000
0100
0000
0000
0010
0100
0000
0001
0000
,  // measure 49
1000
0000
0000
0100
0001
0000
0010
0000
0100
0000
0000
0001
0010
0000
0100
0000
,  // measure 50
0001
0000
0000
1000
0100
0000
0010
0000
0100
0000
0000
0001
0010
0000
0100
0000
,  // measure 51
1000
0000
0000
0100
0001
0000
0010
0000
0100
0000
0000
0001
0010
0000
0100
0000
,  // measure 52
1001
0000
1000
0010
0000
0000
0100
0001
,  // measure 53
1000
0000
0100
0001
0000
0010
0100
0000
,  // measure 54
1000
0000
0100
0001
0010
0000
0100
0000
0001
0000
1000
0100
0001
0000
0010
0000
,  // measure 55
0100
0000
0001
0010
0100
0000
1000
0000
0100
0000
0010
0100
0001
0000
0001
0000
,  // measure 56
0100
0000
0010
0001
0100
0000
1000
0000
0001
0000
0100
0010
0001
0000
1000
0000
,  // measure 57
0100
0000
0010
0100
0001
0000
1000
0000
0100
0000
0001
0010
0100
0000
0010
0000
,  // measure 58
0100
0000
0001
0010
1000
0000
0100
0000
0001
0000
0010
0100
0001
0000
1000
0000
,  // measure 59
0100
0000
0010
0100
0001
0000
1000
0000
0100
0000
0000
0010
0000
0000
0100
0000
,  // measure 60
0001
0000
0000
1000
0000
0000
0000
0000
0100
0001
0000
0000
0000
0000
0000
0000
,  // measure 61
1000
0000
0000
0100
0000
0000
0000
0000
0100
0010
0000
0001
0000
0000
0000
0000
,  // measure 62
1000
0000
0000
0001
0000
0000
0000
0000
0010
0100
0000
0001
0000
0000
0000
0000
,  // measure 63
0010
0001
0100
0000
0000
0000
0000
0000
1000
0100
0000
0001
0000
0000
0000
0000
,  // measure 64
0100
0010
0001
0100
1000
0010
0100
0001
,  // measure 65
0010
0000
0001
1000
0100
0000
1000
0001
,  // measure 66
0010
0000
0100
0000
0010
0100
0001
1000
,  // measure 67
0101
1001
0110
0110
,  // measure 68
1000
0000
0100
0001
0010
0000
0100
0000
0001
0000
1000
0100
0001
0000
0010
0000
,  // measure 69
0100
0000
0001
0010
0100
0000
1000
0000
0100
0000
0001
0010
0100
0000
0001
0000
,  // measure 70
1000
0000
0100
0001
0010
0000
0100
0000
0001
0000
0010
0100
0001
0000
1000
0000
,  // measure 71
0100
0000
0001
0010
0100
0000
0001
0000
1000
0000
0100
0001
0010
0000
0100
0000
,  // measure 72
0001
0000
0010
0100
0001
0000
1000
0000
0100
0000
0001
0010
0100
0000
1000
0000
,  // measure 73
0100
0000
0001
0010
0100
0000
1000
0000
0100
0000
0001
0010
0100
0000
0010
0000
,  // measure 74
1000
0100
0001
0010
0100
0001
0010
0000
0100
0000
1000
0010
0001
0000
0100
0000
,  // measure 75
0100
0001
0010
0100
0001
1000
0100
0000
0010
0000
0100
0001
0010
0000
0100
0000
,  // measure 76
0001
0000
0010
0100
0001
0000
1000
0000
0100
0000
0001
0010
0100
0000
0001
0000
,  // measure 77
1000
0000
0100
0001
0010
0000
0100
0000
0001
0000
0010
0100
0001
0000
1000
0000
,  // measure 78
0100
0000
0010
0100
0001
0000
1000
0000
0100
0000
0001
0010
0100
0000
0001
0000
,  // measure 79
1000
0000
0010
0100
0001
0000
1000
0000
0100
0000
0001
0010
0100
0000
0001
0000
,  // measure 80
0100
0000
0010
0100
0001
0000
1000
0000
0100
0000
0001
0010
0100
0000
0001
0000
,  // measure 81
1000
0000
0001
0100
0001
0000
0010
0000
0100
0000
0001
1000
0100
0000
0001
0000
,  // measure 82
0010
0100
0001
0100
0010
0001
0100
0000
1000
0000
0010
0100
0001
0000
1000
0000
,  // measure 83
0100
0001
0010
1000
0001
0010
0100
0000
0001
0000
0100
0010
0001
0000
0010
0000
,  // measure 84
0101
0101
0110
0011
,  // measure 85
0000
0000
0100
0001
0110
0000
0110
0000
,  // measure 86
0101
0101
0110
1001
,  // measure 87
0000
0000
1000
0100
0011
0000
0110
0000
,  // measure 88
0101
0101
0110
1001
,  // measure 89
0000
0010
0001
0100
1001
0000
0110
0000
,  // measure 90
0100
0000
0010
0000
0001
0100
1000
0001
,  // measure 91
0110
0101
0110
1001
,  // measure 92
0100
0000
0000
0100
0001
0000
1000
0000
0100
0000
0000
0010
0100
0000
0001
0000
,  // measure 93
1000
0000
0000
0010
0100
0000
0010
0000
0100
0000
0000
0001
0010
0000
0100
0000
,  // measure 94
0001
0000
0000
1000
0100
0000
0001
0000
0010
0000
0000
0100
0001
0000
0010
0000
,  // measure 95
0100
0000
0000
0010
0001
0000
0010
0000
0100
0000
0000
0001
0010
0000
1000
0000
,  // measure 96
0100
0000
0000
0001
0010
0000
0100
0000
0001
0000
0000
1000
0100
0000
0001
0000
,  // measure 97
0010
0000
0000
0100
0001
0000
1000
0000
0001
0000
0000
0010
0100
0000
0010
0000
,  // measure 98
0100
0001
0010
0100
0001
1000
0001
0000
0010
0000
0100
0001
0010
0000
0100
0000
,  // measure 99
0011
0011
0010
0000
1001
1001
2002
3003
,  // measure 100
0010
0000
0000
0001
1000
0000
0010
0000
0100
0000
0000
0010
0001
0000
1000
0000
,  // measure 101
0100
0000
0000
0010
0100
0000
0001
0000
1000
0000
0000
0100
0001
0000
0010
0000
,  // measure 102
0100
0000
0000
0001
0010
0000
0001
0000
0100
0000
0000
0010
0001
0000
1000
0000
,  // measure 103
0100
0000
0000
0001
0010
0000
0100
0000
1000
0000
0000
0001
0010
0000
0100
0000
,  // measure 104
0001
0000
0000
1000
0100
0000
0001
0000
0010
0000
0000
0100
0001
0000
1000
0000
,  // measure 105
0100
0000
0000
0001
0010
0000
0100
0000
0001
0000
0000
1000
0100
0000
0001
0000
,  // measure 106
0010
0100
0001
1000
0001
0010
0100
0000
0001
0000
0010
0100
0001
0000
0001
0000
,  // measure 107
0100
0010
0100
0001
1000
0001
0010
0000
0100
0000
0001
0010
0100
0000
0001
0000
;
