#TITLE:jealous type;
#SUBTITLE:;
#ARTIST:Doja Cat;
#TITLETRANSLIT:;
#SUBTITLETRANSLIT:;
#ARTISTTRANSLIT:;
#GENRE:;
#CREDIT:;
#BANNER:;
#BACKGROUND:;
#LYRICSPATH:;
#CDTITLE:;
#MUSIC:Doja Cat - Jealous Type (Lyrics).ogg;
#OFFSET:0.000000;
#SAMPLESTART:100.059883;
#SAMPLELENGTH:12.000000;
#SELECTABLE:YES;
#BPMS:0.000000=120.000000
;
#STOPS:0.000000=1.600000
;
#BGCHANGES:;
#KEYSOUNDS:;
#ATTACKS:;

//---------------dance-single - ----------------
#NOTES:
     dance-single:
     :
     Hard:
     12:
     0.484640,0.633573,0.061016,0.097625,0.411857,556.000000,546.000000,10.000000,16.000000,0.000000,0.000000,0.484640,0.633573,0.061016,0.097625,0.411857,556.000000,546.000000,10.000000,16.000000,0.000000,0.000000:
// measure 0
0000
0000
0000
0000
,  // measure 1
0000
0000
0000
0000
,  // measure 2
1000
0010
0100
0001
0010
0000
1000
0000
0001
0000
0100
0000
1000
0000
0010
0001
,  // measure 3
1000
0010
0001
1000
0001
0100
1000
0100
,  // measure 4
0001
0000
0010
0000
0001
0000
1000
0000
0001
0000
0100
0000
1000
0000
0001
0100
,  // measure 5
1000
0000
0100
0000
0010
0000
1000
0100
0001
0000
0010
0000
0001
0000
0100
0000
,  // measure 6
1000
0000
0100
0001
0010
0000
0010
0000
0001
0000
0100
0000
1000
0000
0100
0001
,  // measure 7
0010
0000
0010
0100
0001
0000
0100
0000
0010
0100
0001
0100
1000
0010
0100
0001
,  // measure 8
1000
0000
0000
0001
0000
0000
0010
0000
0100
0000
0000
0000
1001
0000
0000
0000
,  // measure 9
1000
0000
0100
0001
0000
0000
1000
0100
0001
0000
0010
0000
0100
0000
0010
0000
,  // measure 10
0001
0000
0000
0100
0000
0000
1000
0000
0100
0000
0000
0000
0101
0000
1100
0000
,  // measure 11
0010
0000
0100
0001
0000
0000
1000
0100
0001
0000
0100
0000
0010
0000
0100
0000
,  // measure 12
1000
0000
0000
0001
0000
0000
0010
0000
0100
0000
0000
0000
1001
0000
0000
0000
,  // measure 13
0010
0000
0100
0001
0000
0000
1000
0100
0001
0000
0010
0000
0001
0000
0100
0000
,  // measure 14
1001
0000
0000
0010
0000
0000
0001
0000
0010
0000
0000
0000
0100
0000
0000
0000
,  // measure 15
0010
0000
0100
0001
0000
0000
1000
0000
0100
0001
1000
0100
0001
0100
0001
1000
,  // measure 16
0002
0000
0000
0003
,  // measure 17
0200
0300
0002
0003
,  // measure 18
2000
0000
0000
3000
,  // measure 19
0100
0000
0000
0001
0000
0000
0010
0000
0001
0000
0000
0100
0000
0000
1000
0000
,  // measure 20
0200
0000
0000
0300
,  // measure 21
0010
0001
0000
0000
2000
0000
3000
0000
,  // measure 22
0200
0000
0000
0000
0000
0000
0300
0001
,  // measure 23
0020
0000
0000
0000
0030
0000
0000
0000
0100
0001
1000
0100
0001
1000
0001
0010
,  // measure 24
0100
0000
0001
1000
0100
0001
0100
0000
,  // measure 25
0100
0000
0000
0001
0010
0000
0000
0100
0001
0000
0000
0000
0001
0000
0100
0000
,  // measure 26
1000
0000
0001
0100
0010
0000
1000
0000
0001
0000
0100
0000
0010
0000
1000
0100
,  // measure 27
0001
0000
0000
0010
0100
0000
0010
0001
1000
0000
0001
0000
0010
0100
0001
0000
,  // measure 28
0100
0010
0001
1000
0001
0100
1000
0000
,  // measure 29
0100
0000
0001
0000
0010
0000
0100
0001
0010
0000
0001
0000
0100
0000
0010
0000
,  // measure 30
1000
0000
0010
1000
0001
0100
1000
0000
,  // measure 31
0000
0000
0000
0000
0100
0000
0010
0000
0001
1000
0001
0100
1000
0010
0100
0001
,  // measure 32
1000
0000
0000
0000
0000
0000
0100
0000
0010
0000
0000
0001
0000
0000
0000
0000
,  // measure 33
0000
0000
0100
0001
1000
0000
0100
0000
0001
0000
0000
1000
0000
0000
0001
0000
,  // measure 34
1001
0000
0000
0000
0000
0000
0010
0000
0100
0000
0000
0001
0000
0000
0000
0000
,  // measure 35
0000
0000
1000
0100
0001
0000
0010
0000
0100
0000
0001
0000
1000
0000
0000
0000
,  // measure 36
0110
0000
0000
0000
0000
0000
0001
0000
0010
0000
0000
0100
0000
0000
0000
0000
,  // measure 37
0000
0000
1000
0001
0100
0000
0010
0000
0100
0000
0000
0001
0000
0000
1000
0000
,  // measure 38
0100
0000
0000
0000
0000
0000
0001
0000
1000
0000
0000
0001
0000
0000
0000
0000
,  // measure 39
0001
0000
0100
1000
0100
0000
0010
0000
0001
0000
1000
0000
0100
0000
0001
0000
,  // measure 40
1000
0000
0100
0001
0010
0000
0100
0000
0001
0000
1000
0100
0000
0000
0001
0000
,  // measure 41
0010
0100
0001
0000
0100
0000
0010
0000
1000
0000
0100
0001
0000
0000
0010
0100
,  // measure 42
0001
1000
0001
0000
1000
0000
0100
0001
0000
0000
1000
0100
0001
1000
0001
0010
,  // measure 43
0100
0000
0001
1000
0100
0000
0001
0100
0001
0000
1000
0100
0000
0000
0001
0100
,  // measure 44
1000
0010
0100
0001
0010
0000
0000
0010
,  // measure 45
0100
0000
0001
0000
1000
0100
0001
1000
0001
0000
0010
0100
0000
0000
0001
1000
,  // measure 46
0100
0001
0100
0001
1000
0000
0100
0001
0010
0000
0100
0001
0010
0100
0001
1000
,  // measure 47
0001
0000
0010
0000
0001
0000
1000
0100
0001
0000
0010
0100
0000
0000
0010
0000
,  // measure 48
1000
0000
0000
0001
0000
0000
0100
0000
0002
0000
0000
0000
0003
0000
0000
0000
,  // measure 49
0100
0000
0000
0010
0000
0000
0001
0000
0010
0000
0001
0000
0100
0000
1000
0000
,  // measure 50
0100
0000
0000
0010
0000
0000
0001
0000
0100
0000
0000
0000
0000
0000
0000
0000
,  // measure 51
0010
0000
0000
0001
0000
0000
0100
0000
0010
0000
0001
0000
0100
0000
1000
0000
,  // measure 52
0001
0000
0000
0100
0000
0000
0010
0000
0001
0000
0000
0000
0000
0000
0000
0000
,  // measure 53
0100
0000
0000
0010
0000
0000
0001
0000
0100
0000
0010
0000
1000
0000
0100
0000
,  // measure 54
0001
0000
0000
0010
0000
0000
0100
0000
1000
0000
0000
0000
0000
0000
0000
0000
,  // measure 55
0001
0000
0000
0100
0000
0000
0010
0000
1000
0100
0001
1000
0001
0010
0100
0001
,  // measure 56
0100
0000
0001
1000
0001
0100
1000
0000
,  // measure 57
0000
0000
0000
0000
0000
0000
1000
0000
0100
0000
0000
0001
1000
0000
0100
0000
,  // measure 58
0001
0000
0000
1000
0100
0000
0001
0000
0010
0000
0100
0000
0001
0000
0000
0000
,  // measure 59
0100
0000
0000
0001
1000
0000
0100
0001
0010
0100
0001
1000
0001
0010
0100
0000
,  // measure 60
0100
0010
0001
1000
0001
0100
1000
0000
,  // measure 61
0100
0001
1000
0100
0001
1000
0001
0010
0100
0000
1000
0000
0001
0000
0100
0000
,  // measure 62
1000
0000
0000
0001
0010
0000
0100
0000
0001
0000
1000
0000
0001
0000
0000
0000
,  // measure 63
0000
0000
1000
0100
0001
0000
0010
0000
0100
1000
0001
0010
1000
0100
0001
1000
,  // measure 64
0002
0000
0000
0000
0003
0000
0010
0000
0100
0000
0000
0001
0000
0000
0000
0000
,  // measure 65
0000
0000
1000
0001
0010
0000
1000
0000
0100
0000
0000
0001
0000
0000
1000
0000
,  // measure 66
2002
0000
0000
0000
3003
0000
0010
0000
0100
0000
0000
0001
0000
0000
0000
0000
,  // measure 67
0000
0000
0100
0001
1000
0000
0100
0000
0001
0000
0010
0000
0100
0000
0000
0000
,  // measure 68
2002
0000
3003
0000
0000
0000
1000
0000
0001
0000
0000
0010
0000
0000
0000
0000
,  // measure 69
0000
0000
0100
0001
1000
0000
0100
0000
0001
0000
0000
0010
0000
0000
0001
0000
,  // measure 70
1000
0000
0000
0000
0000
0000
0100
0000
0001
0000
0000
0010
0000
0000
0000
0000
,  // measure 71
1000
0000
0100
0001
0100
0000
0010
0000
0100
0001
1000
0001
0010
0100
0001
1000
,  // measure 72
0001
0000
0000
0010
0000
0000
0001
0000
0100
0000
0000
0010
0000
0000
0001
1000
,  // measure 73
0100
0000
0010
0100
0001
0000
0100
0000
0010
0000
0000
0100
0000
0000
0001
0000
,  // measure 74
1000
0000
0000
0000
0000
0000
0100
0000
0001
0000
0000
0010
0000
0000
0001
0000
,  // measure 75
0000
0000
0000
0010
0001
0100
1000
0000
,  // measure 76
0220
0000
0000
0000
,  // measure 77
0000
0000
0000
0000
0330
0000
0001
0000
1000
0000
0000
0001
0000
0000
0100
0000
,  // measure 78
0010
0000
0000
0000
0000
0000
1000
0000
0100
0000
0000
0100
0000
0000
0010
0000
,  // measure 79
0000
0000
0000
0000
0000
0000
0001
0000
0100
0010
1000
0100
0001
0100
0001
0000
;
