#VERSION:0.83;
#TITLE:jv get the $$$;
#SUBTITLE:;
#ARTIST:Junior Varsity;
#TITLETRANSLIT:;
#SUBTITLETRANSLIT:;
#ARTISTTRANSLIT:;
#GENRE:;
#ORIGIN:;
#CREDIT:;
#BANNER:;
#BACKGROUND:;
#PREVIEWVID:;
#JACKET:;
#CDIMAGE:;
#DISCIMAGE:;
#LYRICSPATH:;
#CDTITLE:;
#MUSIC:jv gets the $$$.ogg;
#OFFSET:0.000000;
#SAMPLESTART:100.059883;
#SAMPLELENGTH:12.000000;
#SELECTABLE:YES;
#BPMS:0.000=150.250;
#STOPS:0.000=0.200,
196.000=1.600;
#DELAYS:;
#WARPS:;
#TIMESIGNATURES:0.000=4=4;
#TICKCOUNTS:0.000=4;
#COMBOS:0.000=1;
#SPEEDS:0.000=1.000=0.000=0;
#SCROLLS:0.000=1.000;
#FAKES:;
#LABELS:0.000=Song Start;
#BGCHANGES:;
#KEYSOUNDS:;
#ATTACKS:
;

//---------------dance-single - ----------------
#NOTEDATA:;
#CHARTNAME:;
#STEPSTYPE:dance-single;
#DESCRIPTION:;
#CHARTSTYLE:;
#DIFFICULTY:Hard;
#METER:12;
#RADARVALUES:0.421851,0.543978,0.080292,0.098135,0.115977,331.000000,322.000000,9.000000,11.000000,0.000000,0.000000,0.000000,0.000000,0.000000,0.421851,0.543978,0.080292,0.098135,0.115977,331.000000,322.000000,9.000000,11.000000,0.000000,0.000000,0.000000,0.000000,0.000000;
#CREDIT:;
#NOTES:
// measure 0
0000
0000
0000
0000
,  // measure 1
0000
0000
0000
0000
,  // measure 2
1000
0001
0000
0100
0010
0000
0000
0000
,  // measure 3
0000
0100
0000
0001
0010
0000
1000
0000
,  // measure 4
0200
0000
0000
0000
,  // measure 5
0300
0001
0010
0100
0001
1000
0001
0000
,  // measure 6
0000
0010
0000
0100
0001
0000
0000
0000
,  // measure 7
0000
0010
0000
0100
0001
0000
0010
0000
,  // measure 8
0200
0000
0000
0000
,  // measure 9
0300
0001
0010
0100
0001
1000
0001
0000
,  // measure 10
0100
0000
0001
1000
0000
0100
0001
0100
,  // measure 11
0000
0010
0100
0001
0000
0001
0100
1000
,  // measure 12
0020
0000
0000
0000
,  // measure 13
0030
0001
0100
0001
1000
0001
0010
0000
,  // measure 14
0000
1000
0000
0001
0100
0000
0000
0000
,  // measure 15
0000
0001
0000
0010
0100
0000
0100
0000
,  // measure 16
0020
0000
0000
0000
,  // measure 17
0030
0010
0001
1000
1000
0100
0001
0000
,  // measure 18
0001
0100
0001
0100
1000
0000
0000
0100
,  // measure 19
0001
0100
1000
0010
0001
0000
0000
0000
,  // measure 20
1000
0100
0001
0100
0001
0000
0000
0100
,  // measure 21
0001
1000
0001
0010
0100
0000
0101
0000
,  // measure 22
0010
0100
0001
0100
1000
0000
0000
0100
,  // measure 23
0001
0100
1000
0100
0001
0000
0000
0000
,  // measure 24
0100
0001
1000
0001
0010
0000
0000
0100
,  // measure 25
0001
0100
0001
1000
0220
0000
0330
0000
,  // measure 26
1000
0100
0001
0100
0001
0010
0000
0000
,  // measure 27
0010
0001
0100
0001
0100
1000
1001
0000
,  // measure 28
0010
0001
0100
0001
0100
1000
0000
0000
,  // measure 29
0010
0001
1000
0001
0100
0010
1001
0000
,  // measure 30
0010
0001
0100
0001
0100
1000
0000
0000
,  // measure 31
0000
0001
0100
0001
0100
1000
1001
0000
,  // measure 32
0010
0001
0100
0001
0100
1000
0000
0000
,  // measure 33
0000
1000
0100
0001
0010
0001
0000
0000
,  // measure 34
0000
0100
0000
0001
0010
0000
0000
0000
,  // measure 35
0000
1000
0000
0100
0001
0000
0010
0000
,  // measure 36
0200
0000
0000
0000
,  // measure 37
0300
0001
1000
0100
0001
0100
0001
0000
,  // measure 38
0000
0100
0000
0010
0001
0000
0000
0000
,  // measure 39
0000
0100
0000
0010
0001
0000
1000
0000
,  // measure 40
0200
0000
0000
0000
,  // measure 41
0000
0020
0000
0330
,  // measure 42
1000
0000
0000
0000
0100
0000
0001
0000
0100
0000
0000
0001
0000
0000
0010
0000
,  // measure 43
0100
0000
0000
0000
0001
0000
0010
0000
0100
0000
0000
0001
0000
0000
1000
0000
,  // measure 44
0100
0000
0000
0000
0001
0000
0010
0000
0100
0000
0000
0001
0000
0000
1000
0000
,  // measure 45
0100
0000
0000
0001
0000
0000
1000
0000
0100
0000
0001
0000
0000
0000
0000
0000
,  // measure 46
0100
0000
0000
0000
0010
0000
0010
0000
0001
0000
0000
1000
0000
0000
0100
0000
,  // measure 47
0001
0000
0000
0000
1000
0000
0100
0000
0001
0000
0000
0010
0000
0000
0100
0000
,  // measure 48
0001
0000
0000
0000
0010
0000
0100
0000
0001
0000
0000
1000
0000
0000
0001
0000
,  // measure 49
0000
0000
0100
0001
1000
0100
0000
0000
,  // measure 50
0100
0000
1000
0001
0100
0010
1001
0000
,  // measure 51
0000
0001
1000
0001
0100
0001
0000
0000
,  // measure 52
0001
0100
0001
0100
1000
0001
1001
0000
,  // measure 53
0010
0000
0100
0001
1000
0001
0000
0000
,  // measure 54
0000
0100
0001
1000
0001
0010
0110
0000
,  // measure 55
0001
0100
0001
0100
1000
0001
0000
0000
,  // measure 56
0000
0001
0100
0001
0100
1000
0000
0000
,  // measure 57
0100
0000
0001
0010
0000
0000
0000
0000
,  // measure 58
1000
0001
0010
0100
0001
1000
0001
0000
0000
0000
0000
0000
0000
0000
0010
0000
,  // measure 59
0100
0000
0000
0001
0010
0000
1000
0000
,  // measure 60
0001
1000
0100
0001
0100
0000
0000
0000
0010
0000
0000
0000
0000
0000
0000
0000
,  // measure 61
1001
0000
0000
0100
0001
0000
0000
1000
,  // measure 62
0100
0010
0100
0001
1000
0001
0010
0100
0001
0000
0000
0000
0000
0000
0001
0000
,  // measure 63
0010
0000
0000
0100
0001
0000
1000
0000
,  // measure 64
0100
0001
0100
0001
1000
0001
0010
0100
0001
1000
0001
0010
0100
0000
0000
0000
,  // measure 65
0002
0000
0000
0000
0000
0000
0000
0000
0000
0000
0000
0100
0000
0000
0000
0000
,  // measure 66
0100
0000
0000
0000
0000
0000
0000
0000
0000
0000
0000
1000
0000
1000
0000
0000
,  // measure 67
0000
2000
0000
0000
0000
0000
0000
0000
0000
0000
0000
0000
3003
0000
0000
0000
;
