#VERSION:0.83;
#TITLE:jump;
#SUBTITLE:;
#ARTIST:BLACKPINK;
#TITLETRANSLIT:;
#SUBTITLETRANSLIT:;
#ARTISTTRANSLIT:;
#GENRE:;
#ORIGIN:;
#CREDIT:;
#BANNER:;
#BACKGROUND:;
#PREVIEWVID:;
#JACKET:;
#CDIMAGE:;
#DISCIMAGE:;
#LYRICSPATH:;
#CDTITLE:;
#MUSIC:jump.ogg;
#OFFSET:0.000000;
#SAMPLESTART:100.059883;
#SAMPLELENGTH:12.000000;
#SELECTABLE:YES;
#BPMS:0.000=145.000;
#STOPS:0.000=0.300,
332.000=3.300;
#DELAYS:;
#WARPS:;
#TIMESIGNATURES:0.000=4=4;
#TICKCOUNTS:0.000=4;
#COMBOS:0.000=1;
#SPEEDS:0.000=1.000=0.000=0;
#SCROLLS:0.000=1.000;
#FAKES:;
#LABELS:0.000=Song Start;
#BGCHANGES:;
#KEYSOUNDS:;
#ATTACKS:
;

//---------------dance-single - ----------------
#NOTEDATA:;
#CHARTNAME:;
#STEPSTYPE:dance-single;
#DESCRIPTION:;
#CHARTSTYLE:;
#DIFFICULTY:Hard;
#METER:13;
#RADARVALUES:0.567058,0.602911,0.212106,0.066662,0.236346,655.000000,620.000000,35.000000,11.000000,0.000000,0.000000,0.000000,0.000000,0.000000,0.567058,0.602911,0.212106,0.066662,0.236346,655.000000,620.000000,35.000000,11.000000,0.000000,0.000000,0.000000,0.000000,0.000000;
#CREDIT:;
#NOTES:
// measure 0
0000
0000
0000
0000
,  // measure 1
0000
0000
0000
0000
,  // measure 2
0000
0000
0000
0000
,  // measure 3
0000
0000
0000
0000
0000
0100
0001
0010
,  // measure 4
0100
0000
0000
0000
0100
0000
0000
0001
0010
0000
0000
0000
0000
0000
0000
0000
,  // measure 5
0200
0000
0300
0000
0010
0100
0001
0100
,  // measure 6
0010
0001
1000
0001
0100
0000
0010
0001
,  // measure 7
0100
0000
0000
0000
0010
0000
0000
0100
0001
0000
0000
0000
0001
0000
0100
0000
,  // measure 8
1000
0000
0000
0000
0100
0000
0000
0001
0010
0000
0000
0000
0000
0000
0000
0000
,  // measure 9
0002
0000
0003
0000
0010
0100
0001
1000
,  // measure 10
0100
0000
0010
0000
0001
1000
0001
0100
,  // measure 11
0010
0000
0000
0000
0001
0000
0000
0001
0010
0000
0000
0000
0000
0000
0000
0000
,  // measure 12
1000
0000
0100
0000
0001
0000
0010
0000
0100
0010
0001
0000
0000
0000
0000
0000
,  // measure 13
0100
0000
0001
0000
0100
0000
0010
0000
0001
1000
0100
0000
0000
0000
0000
0000
,  // measure 14
0010
0000
0001
0000
0100
0000
0010
0000
1000
0001
1000
0000
0100
0000
0001
0000
,  // measure 15
0100
0000
0010
0000
0100
0002
0000
0003
,  // measure 16
0011
0000
0100
0000
1000
0000
0001
0000
0010
0100
0001
0000
0000
0000
0000
0000
,  // measure 17
1001
0000
0100
0000
0010
0000
0100
0000
0001
0100
1000
0000
0000
0000
0000
0000
,  // measure 18
0110
0001
0100
1000
0101
0010
0100
0001
,  // measure 19
0100
0001
0000
0000
1000
0100
0000
0000
0010
0000
0000
0000
0000
0000
0000
0000
,  // measure 20
1000
0000
0100
0001
0010
0000
0100
0000
1000
0000
0010
0000
0001
0000
0100
0000
,  // measure 21
0001
0000
1000
0100
0001
0000
0010
0000
0100
0000
0010
0000
1001
0000
0010
0000
,  // measure 22
0100
0000
0001
0010
0100
0000
0001
0000
0100
0000
0001
0000
0010
0000
0001
0000
,  // measure 23
0100
0000
0010
0001
0100
0000
1000
0000
0100
0000
0001
0000
1001
0000
0100
0000
,  // measure 24
0001
0000
0010
0100
0001
0000
1000
0000
0100
0000
0001
0000
0010
0000
0100
0000
,  // measure 25
0001
0000
0010
0100
0001
0000
1000
0000
0100
0000
0001
0000
0110
0000
0100
0000
,  // measure 26
0001
0000
1000
0001
0100
0000
0010
0000
0100
0000
0001
0000
1000
0000
0100
0000
,  // measure 27
0001
0000
0010
0100
0001
0000
1000
0000
0100
0000
0000
0000
1001
0000
0000
0000
,  // measure 28
0100
0000
0001
0010
0100
0000
0001
0000
1000
0000
0100
0000
0001
0000
0010
0000
,  // measure 29
0100
0000
0001
0010
0100
0000
1000
0000
0100
0000
0000
0000
0010
0000
0000
0000
,  // measure 30
0100
0000
0001
0010
0100
0000
0001
0000
1000
0000
0100
0000
0001
0000
0010
0000
,  // measure 31
0100
0000
0010
0001
0100
0000
1000
0000
0100
0000
0000
0000
0000
0000
0000
0000
,  // measure 32
0100
0000
0001
0010
0100
0000
1000
0000
0100
0000
0001
0000
0010
0000
0100
0000
,  // measure 33
0001
0000
1000
0100
0001
0000
0010
0000
0100
0000
0000
0000
0000
0000
0000
0000
,  // measure 34
0000
0000
0000
0001
1000
0001
0010
0100
,  // measure 35
1000
0100
0000
0000
0101
0000
0000
0000
0110
0000
0000
0000
1001
0000
0000
0000
,  // measure 36
0020
0000
0030
0001
0100
0010
0001
0100
,  // measure 37
2000
0000
0000
3000
0100
0010
0001
0100
,  // measure 38
1000
0010
0001
1000
0001
0100
0001
0100
,  // measure 39
2000
0000
3000
0101
,  // measure 40
0110
0000
0000
0000
0101
0000
0001
0000
0010
0000
0100
0001
1000
0000
0100
0000
,  // measure 41
0110
0000
0000
0000
0110
0000
0000
0000
0001
0000
1000
0010
0100
0000
0001
0000
,  // measure 42
0010
0000
0100
0000
0001
0000
1000
0000
0100
0000
0001
0010
0100
0000
0001
0000
,  // measure 43
2000
0000
0000
0000
,  // measure 44
3100
0000
0000
0000
0100
0000
0001
0010
0000
1000
0100
0000
0010
0000
0000
0000
,  // measure 45
0100
0000
0000
0000
0010
0000
0100
0001
0000
1000
0100
0000
0001
0000
0000
0000
,  // measure 46
0110
0000
0000
0000
0001
0000
1000
0100
0000
0010
0001
0000
0100
0000
0010
0000
,  // measure 47
0000
0000
0000
0000
0100
0000
0010
0001
0000
0100
1000
0000
0001
0000
0000
0000
,  // measure 48
1000
0000
0000
0000
0100
0000
0001
0010
0000
0100
0001
0000
1000
0000
0000
0000
,  // measure 49
0000
0000
0000
0000
0100
0000
0000
0001
0000
0000
1000
0000
0010
0000
0000
0000
,  // measure 50
0100
0000
0000
0000
0010
0000
0100
0001
0000
1000
0100
0000
0001
0000
0010
0000
,  // measure 51
0100
0000
0000
0000
0001
0000
0010
0100
0000
0001
1000
0000
0100
0000
0000
0000
,  // measure 52
0100
0000
0001
0100
0001
0010
0000
0000
,  // measure 53
0010
0000
0001
0100
1000
0100
0000
0010
,  // measure 54
0100
0000
0000
0000
0100
0000
0010
0000
1000
0001
1000
0000
0100
0000
0001
0000
,  // measure 55
0010
0000
1000
0000
0100
0002
0000
0003
,  // measure 56
0000
0000
0010
0001
0100
1000
0000
0000
,  // measure 57
0100
0000
0010
0001
0100
1000
0010
0001
,  // measure 58
0101
0001
0100
0101
0101
0010
0100
0001
,  // measure 59
1000
0001
0000
0000
1001
0000
0000
0000
0110
0000
0000
0000
0101
0000
0000
0000
,  // measure 60
0000
0000
0000
0010
0000
0000
0001
0000
0100
0000
0010
0000
0100
0000
0001
0000
,  // measure 61
1000
0000
0000
0010
0000
0000
0001
0000
0010
0000
0010
0000
1000
0001
0000
0000
,  // measure 62
0100
0000
0010
0001
0100
0000
0001
0000
1000
0000
0100
0000
0001
0000
0010
0000
,  // measure 63
0100
0000
0001
0010
0100
0000
1000
0000
0100
0000
0001
0000
0110
0000
0001
0000
,  // measure 64
1000
0000
0100
0001
0010
0000
0100
0000
0001
0000
1000
0000
0100
0000
0001
0000
,  // measure 65
0010
0000
0100
0001
0010
0000
0100
0000
1000
0000
0001
0000
1001
0000
0010
0000
,  // measure 66
0100
0000
0010
0100
0001
0000
0010
0000
0100
0000
0001
0000
1000
0000
0100
0000
,  // measure 67
0001
0000
0010
0100
0001
0000
0010
0000
0100
0000
0001
0000
1001
0000
0010
0000
,  // measure 68
1000
0000
0100
0010
0001
0000
0010
0000
0100
0000
0001
0000
0100
0000
1000
0000
,  // measure 69
0001
0000
0010
0100
0001
0000
1000
0000
0100
0000
0000
0000
0000
0000
0000
0000
,  // measure 70
0010
0000
0100
0001
0010
0000
0100
0000
0001
0000
1000
0000
0100
0000
0001
0000
,  // measure 71
0010
0000
0100
0001
1000
0000
0100
0000
0001
0000
0000
0000
0000
0000
0000
0000
,  // measure 72
0010
0000
0100
0001
1000
0000
0100
0000
0001
0000
0010
0000
0100
0000
0001
0000
,  // measure 73
0010
0000
0100
0001
1000
0000
0100
0000
0010
0000
0000
0000
0000
0000
0000
0000
,  // measure 74
0000
0000
1000
0001
1000
0000
0010
0000
0100
0000
0001
0000
1000
0000
0001
0000
,  // measure 75
0010
0100
0000
0000
1001
0000
0000
0000
0110
0000
0000
0000
0101
0000
0000
0000
,  // measure 76
0200
0000
0300
0001
0100
0010
0001
0100
,  // measure 77
2000
0000
3000
0000
0100
0001
1000
0001
,  // measure 78
0010
0100
0010
0001
1000
0001
0100
0010
,  // measure 79
2000
0000
3000
1001
,  // measure 80
0110
0000
0000
0000
0001
0000
0100
0000
0001
0000
1000
0100
0001
0000
0010
0000
,  // measure 81
0101
0000
0000
0000
0011
0000
0000
0000
1000
0000
0010
0100
0001
0000
1000
0000
,  // measure 82
0100
0000
0001
0000
0010
0000
0100
0000
0001
0000
1000
0100
0001
0000
0100
0000
,  // measure 83
0000
0000
0000
0001
0000
0000
0100
0000
1000
0000
0001
0000
0100
0000
0010
0000
,  // measure 84
0001
0000
0000
0100
0000
0000
0010
0000
0001
0000
0000
0000
0000
0000
0000
0000
,  // measure 85
0000
0000
0000
0100
0000
0000
0001
0000
0010
0000
0100
0000
0001
0000
1000
0000
,  // measure 86
0100
0000
0000
0001
0010
0000
0100
0000
0001
0000
1000
0000
0100
0000
0000
0000
,  // measure 87
0010
0000
0000
0100
0010
0000
0100
0000
0001
0000
1000
0000
0100
0000
0001
0000
,  // measure 88
0010
0000
0000
0001
1000
0000
0100
0000
0001
0000
0000
0000
0100
0000
0000
0000
,  // measure 89
0001
0000
0000
0001
1000
0000
0010
0000
0001
0000
0100
0000
0010
0000
0100
0000
,  // measure 90
0001
0000
0000
0100
0001
0000
0100
0000
0010
0000
0000
0000
1001
0000
0000
0000
,  // measure 91
0100
0000
0000
0010
0001
0000
0010
0000
0100
0000
0010
0000
0001
0000
0100
0000
,  // measure 92
1000
0000
0000
0010
0100
0000
0001
0000
1000
0000
0000
0000
0001
0000
0000
0000
,  // measure 93
0100
0000
0000
0010
0001
0000
0100
0000
0001
0000
0010
0000
0100
0000
0001
0000
,  // measure 94
1000
0000
0000
0100
0001
0000
0010
0000
0100
0000
0000
0000
1001
0000
0000
0000
;
