#TITLE:intution;
#SUBTITLE:;
#ARTIST:Jewel;
#TITLETRANSLIT:;
#SUBTITLETRANSLIT:;
#ARTISTTRANSLIT:;
#GENRE:;
#CREDIT:;
#BANNER:;
#BACKGROUND:;
#LYRICSPATH:;
#CDTITLE:;
#MUSIC:Jewel - Intuition (Official Audio).mp3;
#OFFSET:0.000000;
#SAMPLESTART:100.059883;
#SAMPLELENGTH:12.000000;
#SELECTABLE:YES;
#BPMS:0.000000=100.000000
;
#STOPS:0.000000=0.550000
;
#BGCHANGES:;
#KEYSOUNDS:;
#ATTACKS:;

//---------------dance-single - ----------------
#NOTES:
     dance-single:
     :
     Hard:
     11:
     0.422305,0.491234,0.327489,0.030566,0.106980,677.000000,602.000000,75.000000,7.000000,0.000000,0.000000,0.422305,0.491234,0.327489,0.030566,0.106980,677.000000,602.000000,75.000000,7.000000,0.000000,0.000000:
// measure 0
0000
0000
0000
0000
,  // measure 1
0000
0000
0000
0000
,  // measure 2
1000
0000
0100
0000
0001
0000
0100
0001
0010
0000
0100
0000
0001
0000
1000
0001
,  // measure 3
0100
0000
1000
0000
0001
0000
0100
0010
0001
0000
0100
0000
0001
0000
0100
0000
,  // measure 4
1000
0010
0001
1000
0001
0100
0010
0001
,  // measure 5
1000
0001
0100
0010
0001
0100
1000
0000
,  // measure 6
0001
0000
0100
0000
1000
0010
0001
0010
0100
0000
0001
1000
0001
0000
0100
0000
,  // measure 7
0010
0000
0001
0100
1000
0000
0010
0000
0100
0001
1000
0100
0001
0000
0100
0000
,  // measure 8
0010
0000
0001
0100
1000
0000
0010
0000
0001
0000
0100
0000
2000
0000
0000
0000
,  // measure 9
3000
0000
0100
0000
0001
0000
1000
0100
0001
0000
0100
0000
2000
0000
0000
0000
,  // measure 10
3000
0100
0001
0010
0100
0000
0010
0000
0100
0000
0001
1000
0000
0000
0000
0000
,  // measure 11
1000
0000
0001
0000
0100
0000
0010
0000
1000
0000
0100
0001
0000
0000
0000
0000
,  // measure 12
0100
0000
1000
0001
0010
0000
0100
0001
1000
0000
0100
0000
0002
0000
0003
0000
,  // measure 13
0000
0000
0010
0100
0001
0000
0000
0000
0001
0000
0100
0000
1000
0000
0000
0000
,  // measure 14
0100
0010
0001
1000
,  // measure 15
0001
0100
0020
0030
,  // measure 16
1000
0001
0100
0010
,  // measure 17
0101
0101
0101
0000
1001
1001
1001
0000
,  // measure 18
0101
0000
0010
0100
0002
0000
0003
0101
,  // measure 19
0101
0001
0100
1000
0001
0000
0100
0000
,  // measure 20
0110
0000
0010
0001
1000
0100
0000
1001
,  // measure 21
1001
0010
0001
0100
1000
0000
0010
0000
,  // measure 22
0011
0010
0001
0100
1000
0000
0000
1001
,  // measure 23
1001
0001
1000
0001
0100
0000
1000
0000
,  // measure 24
0101
0000
0010
0000
0001
0100
0001
0000
0002
0000
0000
0000
0003
0000
0100
0000
,  // measure 25
0010
0001
1000
0001
0100
0000
1000
0000
,  // measure 26
0001
0000
0100
0000
0010
0000
0001
0100
1000
0000
0100
0000
0010
0000
0001
0100
,  // measure 27
1000
0000
0100
0000
0010
0000
0001
0100
1000
0000
0010
0000
0001
0000
0100
0000
,  // measure 28
1000
0010
0001
0100
0010
0001
0100
0001
,  // measure 29
0100
0010
0001
1000
0001
0100
1000
0000
,  // measure 30
1000
0000
0100
0001
0010
0000
0001
0100
1000
0000
0010
0000
0100
0000
0000
0000
,  // measure 31
0100
0010
0001
1000
0001
0100
1000
0000
,  // measure 32
0000
0000
0001
1000
0100
0000
0000
0001
0010
0000
0100
0002
0000
0000
0003
0000
,  // measure 33
0000
0000
0001
1000
0100
0000
0000
0001
0010
0000
0100
0000
0001
0000
0000
0000
,  // measure 34
0001
0100
0010
0001
,  // measure 35
1000
0000
0000
0000
0001
0000
0000
0000
0100
0000
0100
0010
0001
1000
0001
0100
,  // measure 36
1000
0000
0001
0000
0100
0000
0010
0001
,  // measure 37
0101
1100
0101
0000
1001
1001
1001
0000
,  // measure 38
0101
0000
0010
0100
0001
0000
0000
1001
,  // measure 39
1001
0001
1000
0001
0100
0000
0010
0000
,  // measure 40
0101
0000
0010
0001
1000
0100
0000
1001
,  // measure 41
1001
0100
0010
0001
0100
0000
1000
0000
,  // measure 42
1001
0001
0010
0100
0001
0000
0000
1001
,  // measure 43
1001
1000
0001
0100
0010
0000
0100
0000
,  // measure 44
1001
0000
0001
0000
0001
0100
0010
0000
0001
0000
0000
0000
0000
0000
0010
0000
,  // measure 45
0001
1000
0001
0100
1000
0000
0010
0000
,  // measure 46
0100
0001
1000
0001
0010
0100
0001
0000
,  // measure 47
0010
0000
0001
1000
0001
0100
0010
0000
0100
0001
1000
0000
0100
0000
0000
0000
,  // measure 48
0100
0010
0001
1000
0001
0100
1000
0000
,  // measure 49
0001
0100
0010
0000
1000
0001
0100
0000
,  // measure 50
0010
0001
0100
0010
0001
0100
1000
0000
,  // measure 51
0100
0000
0001
0010
0100
0001
1000
0000
0001
0010
0100
0000
0001
0000
0000
0000
,  // measure 52
0100
0010
0001
1000
0001
0100
0010
0000
,  // measure 53
0001
0100
0010
0000
1000
0001
0100
0000
,  // measure 54
1000
0000
0000
0000
0100
0000
0001
0010
0100
0000
0000
0000
0010
0000
0000
0000
,  // measure 55
1000
0000
0001
0000
0000
0010
0100
0000
0001
0000
0000
0000
0000
0000
0000
0000
,  // measure 56
0000
0100
0000
0010
0000
0100
0001
1000
,  // measure 57
1001
1001
1001
0000
0101
0101
0101
0000
,  // measure 58
0110
0000
0001
0100
1000
0000
0000
0101
,  // measure 59
0101
0010
0001
1000
0001
0000
0100
0000
,  // measure 60
0110
0000
0100
0001
0100
1000
0000
0101
,  // measure 61
0101
1000
0001
0010
0100
0000
0001
0000
,  // measure 62
1001
0010
0100
0001
1000
0000
0000
0101
,  // measure 63
0101
0010
0001
0100
1000
0000
0100
0000
,  // measure 64
1001
0000
0001
0000
1000
0100
0001
0000
0010
0000
0000
0000
0000
0000
0100
0000
,  // measure 65
0010
0001
1000
0001
0100
0000
1000
0000
,  // measure 66
0100
0000
0010
0000
1000
0100
0001
0000
1000
0000
0100
0001
0000
0000
0000
0000
,  // measure 67
0010
0001
0100
0001
1000
0000
0100
0000
,  // measure 68
0000
0000
0100
0001
0100
1000
0000
0010
,  // measure 69
0000
1000
0001
0100
1000
0000
0100
0000
,  // measure 70
0000
0010
0001
0100
1000
0000
0000
0000
,  // measure 71
0001
0100
0001
0100
1000
0000
0010
0000
,  // measure 72
0010
0000
0100
0001
1000
0100
0001
0000
1000
0000
0100
0001
0000
0000
0010
0000
,  // measure 73
0100
0001
1000
0001
0110
0000
0101
0000
,  // measure 74
1001
0000
0001
0100
1000
0000
0000
0101
,  // measure 75
0101
0010
0001
0100
1000
0000
0100
0000
,  // measure 76
0110
0000
1000
0001
0100
1000
0000
1001
,  // measure 77
1001
0001
0010
0100
0001
0000
1000
0000
,  // measure 78
0101
0100
0010
0001
1000
0000
0000
0101
,  // measure 79
0101
0010
0001
0100
1000
0000
0001
0000
,  // measure 80
0010
0000
0100
0000
0001
1000
0100
0000
0001
0000
0000
0000
0000
0000
0010
0000
,  // measure 81
0001
1000
0001
0100
0001
0000
0010
0000
,  // measure 82
0101
0000
0001
0100
1000
0000
0000
0101
,  // measure 83
0101
0010
0001
0100
1000
0000
0100
0000
,  // measure 84
0101
0000
0010
0100
0001
0010
0000
0101
,  // measure 85
0101
1000
0100
0001
0100
0000
0001
0000
,  // measure 86
1001
0010
0100
0001
1000
0000
0000
0101
,  // measure 87
0101
0010
0100
0001
1000
0001
0010
0000
,  // measure 88
0101
0000
0001
0000
0010
0100
0001
0000
1000
0000
0000
0000
0000
0000
0100
0000
,  // measure 89
0001
0100
0001
1000
0001
0000
1000
0000
,  // measure 90
0101
0000
0001
0100
1000
0000
0000
0101
,  // measure 91
0101
0010
0001
0100
1000
0000
0010
0000
,  // measure 92
0110
0000
0010
0001
0100
1000
0000
0101
,  // measure 93
0101
0001
1000
0100
0001
0000
0010
0000
;
