#VERSION:0.83;
#TITLE:in the dark;
#SUBTITLE:;
#ARTIST:Selena Gomez;
#TITLETRANSLIT:;
#SUBTITLETRANSLIT:;
#ARTISTTRANSLIT:;
#GENRE:;
#ORIGIN:;
#CREDIT:;
#BANNER:;
#BACKGROUND:;
#PREVIEWVID:;
#JACKET:;
#CDIMAGE:;
#DISCIMAGE:;
#LYRICSPATH:;
#CDTITLE:;
#MUSIC:Selena Gomez - In The Dark (Official Music Video).ogg;
#OFFSET:0.000000;
#SAMPLESTART:100.059883;
#SAMPLELENGTH:12.000000;
#SELECTABLE:YES;
#BPMS:0.000=120.000;
#STOPS:0.000=0.100;
#DELAYS:;
#WARPS:;
#TIMESIGNATURES:0.000=4=4;
#TICKCOUNTS:0.000=4;
#COMBOS:0.000=1;
#SPEEDS:0.000=1.000=0.000=0;
#SCROLLS:0.000=1.000;
#FAKES:;
#LABELS:0.000=Song Start;
#BGCHANGES:0.000=Selena Gomez - In The Dark (Official Music Video).mp4=1.000=0=0=1=====,
99999=-nosongbg-=1.000=0=0=0 // don't automatically add -songbackground-
;
#KEYSOUNDS:;
#ATTACKS:
;

//---------------dance-single - ----------------
#NOTEDATA:;
#CHARTNAME:;
#STEPSTYPE:dance-single;
#DESCRIPTION:;
#CHARTSTYLE:;
#DIFFICULTY:Hard;
#METER:12;
#RADARVALUES:0.426117,0.635958,0.027215,0.065317,0.438169,548.000000,543.000000,5.000000,12.000000,0.000000,0.000000,0.000000,0.000000,0.000000,0.426117,0.635958,0.027215,0.065317,0.438169,548.000000,543.000000,5.000000,12.000000,0.000000,0.000000,0.000000,0.000000,0.000000;
#CREDIT:;
#NOTES:
// measure 0
0000
0000
0000
0000
,  // measure 1
0000
0000
0000
0000
,  // measure 2
0100
0000
0000
0001
0000
0000
0010
0000
0000
0100
0000
0000
0000
0000
0001
0000
,  // measure 3
0000
1000
0000
0000
0000
0000
0000
0000
0000
0000
0000
0000
0000
0000
0000
0000
,  // measure 4
0100
0000
0000
0001
0000
0000
1000
0000
0100
0000
0000
0000
0001
0000
0000
0000
,  // measure 5
0000
0000
0010
0000
0100
0000
0000
0000
0001
1000
0001
0000
0010
0000
0100
0000
,  // measure 6
0000
0000
0000
0100
0001
0100
1000
0100
,  // measure 7
1000
0000
0000
0001
0000
0000
0100
0000
0010
0000
0000
0001
0000
0000
1000
0000
,  // measure 8
0000
0000
0000
0000
0000
0000
0000
0000
1000
0000
0000
0001
0000
0000
0100
0000
,  // measure 9
0010
0000
0000
0001
0000
0000
0000
0000
0000
0000
0000
0000
0000
0000
0100
0000
,  // measure 10
1000
0000
0000
0001
0000
0000
0010
0000
0100
0000
0000
0001
0000
0000
0000
0000
,  // measure 11
0000
1000
0000
0000
0000
0000
0000
0000
,  // measure 12
1000
0000
0000
0100
0000
0000
0010
0000
0001
0000
0000
0100
0000
0000
0000
0000
,  // measure 13
0000
0000
0001
0000
0010
0000
0000
0000
0100
1000
0001
0010
0100
0000
0001
0000
,  // measure 14
1000
0000
0000
0000
0000
0000
0000
0000
0010
0000
0000
0001
0000
0000
0100
0000
,  // measure 15
1000
0000
0000
0010
0000
0000
0001
0000
0100
0000
0000
0010
0000
0000
0001
0000
,  // measure 16
0000
0000
0000
0000
0000
0000
0000
0000
0100
0000
0000
0001
0000
0000
1000
0000
,  // measure 17
0100
0000
0000
0001
0000
0000
0010
0000
0100
0000
0000
0000
0000
0000
0100
0000
,  // measure 18
0001
0000
0000
1000
0000
0000
0100
0000
0000
0000
0000
0000
0001
0000
0010
0000
,  // measure 19
0001
0000
0000
1000
0000
0000
0010
0000
0000
0000
0000
0000
0100
0000
0010
0000
,  // measure 20
0100
0000
0000
0010
0000
0000
0100
0000
0010
0000
0000
0001
0000
0000
1000
0000
,  // measure 21
0000
0000
0001
0000
0100
0000
0000
0010
0000
0000
0001
0000
0100
0000
1000
0000
,  // measure 22
0100
0000
0000
0001
0000
0000
0010
0000
0000
0000
0000
0000
0100
0000
1000
0000
,  // measure 23
0100
0000
0000
0010
0000
0000
0001
0000
0000
0000
0000
0000
0100
0000
1000
0000
,  // measure 24
0001
0000
0000
0100
0000
0000
0010
0000
0001
0000
0000
0100
0000
0000
1000
0000
,  // measure 25
0100
0000
0001
0000
1000
0000
0000
0010
0000
0000
0100
0000
0001
1000
0100
0001
,  // measure 26
0010
1000
0100
0001
0000
0000
0010
0000
0100
0001
1000
0001
0000
0000
0001
0000
,  // measure 27
1000
0001
0100
0010
0000
0000
0000
0000
0000
0000
0100
0000
0001
1000
0100
0001
,  // measure 28
0010
0100
0001
1000
0000
0000
0100
0000
0010
0100
0001
1000
0000
0000
0010
0000
,  // measure 29
1000
0000
0000
0001
0000
0000
0100
0000
0010
0000
0000
0001
0000
0000
1000
0000
,  // measure 30
0100
0000
0000
0001
0000
0000
0010
0000
0000
0000
0000
0000
0100
0000
0001
0000
,  // measure 31
0010
0000
0000
0001
0000
0000
1000
0000
0000
0000
0000
0000
0100
0000
0001
0000
,  // measure 32
1000
0000
0000
0001
0000
0000
0100
0000
0010
0000
0000
0001
0000
0000
1000
0000
,  // measure 33
0200
0300
0002
0003
,  // measure 34
0100
0000
0000
0010
0000
0000
0100
0000
0000
0000
0001
0000
0000
0000
1000
0000
,  // measure 35
0000
0000
0100
0000
0000
0000
0001
0000
1000
0000
0100
0001
0000
0000
0010
0000
,  // measure 36
1000
0000
0000
0001
0000
0000
0010
0000
0100
0000
0000
1000
0000
0000
0000
0000
,  // measure 37
0000
0000
0010
0000
0100
0000
0000
0000
0010
0001
0100
1000
0010
0000
0100
0000
,  // measure 38
0000
0000
0000
0000
0000
0000
1000
0000
0100
0000
0000
0001
0000
0000
0010
0000
,  // measure 39
0100
0000
0000
1000
0000
0000
0001
0000
0100
0000
0000
0010
0000
0000
0001
0000
,  // measure 40
0000
0000
0000
0000
0000
0000
0010
0000
0001
0000
0000
0100
0000
0000
0010
0000
,  // measure 41
0001
0000
0000
1000
0000
0000
0000
0000
0000
0000
0000
0000
0100
0001
1000
0000
,  // measure 42
0200
0000
0300
0010
0001
1000
0100
0001
,  // measure 43
0020
0000
0000
0000
0030
0000
0100
0001
,  // measure 44
2000
0000
3000
0001
0100
0010
0100
0001
,  // measure 45
2000
0000
3000
0000
0000
0000
0100
0000
0001
0000
0000
0010
0000
0000
0100
0000
,  // measure 46
0000
0000
0010
0000
0000
0000
1000
0000
0100
0000
0000
0001
0000
0000
1000
0000
,  // measure 47
0000
0000
0010
0000
0000
0000
0001
0000
0100
0000
0000
0001
0000
0000
0100
0000
,  // measure 48
0000
0000
0010
0000
0000
0000
1000
0000
0100
0000
0000
0010
0000
0000
0001
0000
,  // measure 49
0000
0000
0000
0000
0000
0000
0000
0100
,  // measure 50
1001
0000
0000
0010
0000
0000
0100
0000
0000
0000
0000
0000
0001
0000
0010
0000
,  // measure 51
0100
0000
0000
0010
0000
0000
0001
0000
0000
0000
0000
0000
0010
0000
0100
0000
,  // measure 52
0001
0000
0000
1000
0000
0000
0100
0000
0001
0000
0000
0010
0000
0000
0100
0000
,  // measure 53
0000
0000
0100
0000
1000
0000
0000
0001
0000
0000
0010
0000
0100
0000
0001
0000
,  // measure 54
0100
0000
0000
0010
0000
0000
0001
0000
0000
0000
0000
0000
0001
0000
0100
0000
,  // measure 55
1000
0000
0000
0010
0000
0000
0001
0000
0000
0000
0000
0000
0010
0000
0001
0000
,  // measure 56
0100
0000
0000
0001
0000
0000
1000
0000
0010
0000
0000
0100
0000
0000
0001
0000
,  // measure 57
0000
0000
0010
0000
0001
0000
0000
0100
0000
0000
0001
0000
0010
0100
0001
1000
,  // measure 58
0001
0010
0100
0001
0000
0000
0010
0000
0010
0001
0100
1000
0000
0000
0100
0001
,  // measure 59
1000
0001
0010
0100
0000
0000
0000
0000
0000
0000
1000
0000
0100
0001
0100
0001
,  // measure 60
1000
0010
0001
0100
0000
0000
0100
0000
1000
0001
0100
0010
0000
0000
1000
0000
,  // measure 61
0100
0000
0000
0001
0000
0000
0010
0000
0100
0000
0000
0001
0000
0000
1000
0000
,  // measure 62
0100
0000
0000
0010
0000
0000
0001
0000
1000
0100
0001
0000
0010
0000
0100
0000
,  // measure 63
0010
0000
0000
0100
0000
0000
0001
0000
0000
0000
0000
0000
1000
0000
0100
0000
,  // measure 64
0001
0000
0000
0010
0000
0000
0100
0000
0010
0000
0000
0100
0000
0000
0001
0000
,  // measure 65
1000
0000
0010
0000
0100
0000
0001
1000
0100
0001
0100
0001
1000
0001
0010
0100
,  // measure 66
0001
0000
0000
0000
1000
0100
0001
1000
0001
0010
0100
0001
1000
0000
0001
0000
,  // measure 67
0220
0330
0000
0000
0001
1000
0001
0100
0010
0001
1000
0001
0100
0000
1000
0000
,  // measure 68
0220
0000
0330
0000
0001
0000
1000
0100
0001
0000
0010
0000
0010
0000
0100
0001
,  // measure 69
0000
0000
0000
1000
0000
0100
0000
0001
0010
0000
0100
0001
1000
0000
0001
0010
,  // measure 70
0000
0000
0000
0000
0100
0010
0001
0100
0001
0010
1000
0100
0001
0000
1000
0000
,  // measure 71
0220
0000
0330
0000
0001
1000
0001
0100
0010
0001
1000
0100
1000
0000
0100
0000
,  // measure 72
0010
0000
0000
0100
0000
0001
0000
1000
0100
0000
0001
0010
0100
0000
0001
1000
,  // measure 73
0000
0000
0000
0100
0001
0000
1000
0000
,  // measure 74
1000
0000
1000
0000
1000
0000
1000
0001
,  // measure 75
1001
0000
0000
0010
0000
0000
0100
0000
0000
0000
0000
0000
0010
0000
0100
0000
,  // measure 76
0001
0000
0000
0010
0000
0000
0100
0000
0000
0000
0000
0000
0001
0000
0100
0000
,  // measure 77
1000
0000
0000
0001
0000
0000
0100
0000
0010
0000
0000
0001
0000
0000
1000
0000
,  // measure 78
0100
0000
0001
0000
1000
0000
0000
0001
0000
0010
0100
0000
0001
0000
0000
0000
,  // measure 79
0100
0000
0000
0010
0000
0000
0001
0000
0000
0000
0000
0000
0100
0000
0010
0000
,  // measure 80
0001
0000
0000
1000
0000
0000
0100
0000
0000
0000
0000
0000
0100
0000
1000
0000
,  // measure 81
0001
0000
0000
0010
0000
0000
0100
0000
0001
0000
0000
1000
0000
0000
0100
0000
,  // measure 82
0010
0000
0100
0000
0001
0000
1000
0000
0010
0000
0100
0000
0001
0100
0010
0001
,  // measure 83
1000
0001
0100
1000
0000
0000
0010
0000
0100
0001
0100
1000
0000
0000
0001
0000
,  // measure 84
1000
0001
0100
1000
0000
0000
0000
0000
0000
0000
0100
0000
0001
1000
0100
0001
,  // measure 85
0010
0100
0001
1000
0000
0000
0010
0000
0100
0001
0100
1000
0000
0000
0000
0000
,  // measure 86
0010
0000
0000
0001
0000
0000
1000
0000
0001
0000
0000
0010
0000
0000
0100
0000
,  // measure 87
0001
0000
0000
0100
0000
0000
0010
0000
0000
0000
0000
0000
0100
0000
0010
0000
,  // measure 88
0001
0000
0000
0100
0000
0000
1000
0000
0000
0000
0000
0000
0010
0000
0001
0000
,  // measure 89
0100
0000
0000
1000
0000
0000
0001
0000
0100
0000
0000
0010
0000
0000
0001
0000
;
