#VERSION:0.83;
#TITLE:ice box;
#SUBTITLE:;
#ARTIST:Omarion;
#TITLETRANSLIT:;
#SUBTITLETRANSLIT:;
#ARTISTTRANSLIT:;
#GENRE:;
#ORIGIN:;
#CREDIT:;
#BANNER:;
#BACKGROUND:;
#PREVIEWVID:;
#JACKET:;
#CDIMAGE:;
#DISCIMAGE:;
#LYRICSPATH:;
#CDTITLE:;
#MUSIC:Omarion - Ice Box (Lyrics).mp3;
#OFFSET:0.000000;
#SAMPLESTART:100.059883;
#SAMPLELENGTH:12.000000;
#SELECTABLE:YES;
#BPMS:0.000=131.000,
104.000=133.000,
136.000=131.000,
192.000=132.000,
204.000=134.000,
208.000=129.000,
224.000=131.000;
#STOPS:0.000=0.225;
#DELAYS:;
#WARPS:;
#TIMESIGNATURES:0.000=4=4;
#TICKCOUNTS:0.000=4;
#COMBOS:0.000=1;
#SPEEDS:0.000=1.000=0.000=0;
#SCROLLS:0.000=1.000;
#FAKES:;
#LABELS:0.000=Song Start;
#BGCHANGES:;
#KEYSOUNDS:;
#ATTACKS:
;

//---------------dance-single - ----------------
#NOTEDATA:;
#CHARTNAME:;
#STEPSTYPE:dance-single;
#DESCRIPTION:;
#CHARTSTYLE:;
#DIFFICULTY:Hard;
#METER:15;
#RADARVALUES:0.704268,0.727354,0.000000,0.011655,0.629346,1269.000000,1269.000000,0.000000,3.000000,0.000000,0.000000,0.000000,0.000000,0.000000,0.704268,0.727354,0.000000,0.011655,0.629346,1269.000000,1269.000000,0.000000,3.000000,0.000000,0.000000,0.000000,0.000000,0.000000;
#CREDIT:;
#NOTES:
// measure 0
0000
0000
0000
0000
,  // measure 1
0000
0000
0000
0000
,  // measure 2
0000
0000
0000
0000
,  // measure 3
0000
0000
0000
0000
,  // measure 4
0010
0001
0100
1000
0000
0000
0000
0100
,  // measure 5
0001
0000
0000
0000
,  // measure 6
1000
0100
0010
0001
0000
0000
0000
0010
,  // measure 7
0001
0000
0000
0000
,  // measure 8
0010
0001
1000
0001
0100
0010
0001
0100
,  // measure 9
1000
0010
0001
0100
0010
0001
1000
0001
,  // measure 10
0100
0010
0001
0100
0001
0100
0010
0001
,  // measure 11
0100
0001
0100
0010
0001
1000
0001
0100
,  // measure 12
0010
0001
0100
1000
0010
0000
0001
0100
,  // measure 13
1000
0001
0100
0010
,  // measure 14
0100
0010
0100
0001
1000
0000
0100
0001
,  // measure 15
0010
0001
0100
0010
,  // measure 16
0001
0100
1000
0000
0001
0100
1000
0000
,  // measure 17
0100
0010
0001
0100
0001
0000
1000
0000
,  // measure 18
0010
0001
0100
0000
0001
0100
1000
0000
,  // measure 19
0001
0100
0010
0001
1000
0000
0200
0000
,  // measure 20
0300
0001
1000
0100
0001
0010
0000
0000
,  // measure 21
0000
0001
1000
0100
0000
0010
0000
0000
,  // measure 22
0000
0100
0010
0001
0100
1000
0000
0010
,  // measure 23
0001
0000
1000
0100
0000
0010
0001
0000
,  // measure 24
0010
0001
0100
0000
0010
0100
0001
0000
,  // measure 25
0001
1000
0001
0100
0010
0001
1000
0100
,  // measure 26
0010
0001
0100
0000
0010
0001
0100
0000
,  // measure 27
0001
0100
0010
0001
0100
1000
0100
0000
,  // measure 28
0000
0001
0010
0100
0010
0001
0000
0000
,  // measure 29
0000
0100
0001
0100
0000
0001
0000
0000
,  // measure 30
0000
0010
0001
0100
1000
0100
0000
0001
,  // measure 31
0010
0000
0100
0001
0000
1000
0100
0000
,  // measure 32
0100
0010
0100
0000
0001
0100
0001
0000
0010
0100
0010
0000
0100
0001
0100
0001
,  // measure 33
0100
0001
0100
0001
0010
0100
0010
0000
1000
0100
1000
0000
0010
0100
0010
0000
,  // measure 34
0001
0100
0001
0000
1000
0100
1000
0000
0100
0010
0100
0000
0010
0100
0010
0100
,  // measure 35
0010
0100
0010
0000
0001
0010
0001
0000
1000
0001
1000
0000
0010
0100
0010
0000
,  // measure 36
0100
0001
0100
0000
0010
0100
0010
0000
0100
1000
0100
0000
0010
0100
0010
0100
,  // measure 37
0010
0100
0010
0100
0010
0001
0010
0000
0001
1000
0001
0000
0010
0100
0010
0000
,  // measure 38
0100
0001
0100
0000
0010
0100
0010
0000
1000
0001
1000
0000
0100
0001
0100
0000
,  // measure 39
0010
0100
0010
0000
1000
0001
1000
0000
0100
0001
0100
0000
0010
0100
0010
0000
,  // measure 40
0100
0001
0100
0000
0100
0001
0100
0000
0010
0100
0010
0000
0100
1000
0100
0000
,  // measure 41
0010
0100
0010
0000
1000
0001
1000
0000
0010
0100
0010
0000
0010
0100
0001
0000
,  // measure 42
0010
0100
1000
0000
0100
0001
0100
0000
0010
0100
0001
0000
0010
0100
0001
0000
,  // measure 43
0001
0100
1000
0000
0001
0100
0010
0000
0001
0100
0010
0000
0001
1000
0100
0000
,  // measure 44
0001
0100
0010
0000
0001
0100
1000
0000
0001
0100
0010
0000
0001
0100
0010
0000
,  // measure 45
0001
0100
1000
0000
0001
0100
0010
0000
0001
0100
0010
0000
1000
0100
0001
0000
,  // measure 46
0010
0001
0100
0000
0010
0100
0001
0000
1000
0100
0001
0000
0010
0100
0001
0000
,  // measure 47
1000
0100
0001
0000
0010
0100
0001
0000
0010
0100
0001
0000
1000
0100
0001
0000
,  // measure 48
0010
0100
0001
0000
0010
0100
0001
0000
1000
0100
0001
0000
0010
0100
0001
0000
,  // measure 49
0001
0100
1000
0000
0001
0100
0010
0000
0001
0100
0010
0000
0001
1000
0100
0000
,  // measure 50
0010
0100
0010
0000
1000
0100
0001
0000
0010
0100
0001
0000
1000
0100
0001
0000
,  // measure 51
0010
0100
0001
0000
0010
0100
0001
0000
1000
0100
0001
0000
0010
0100
0001
0000
,  // measure 52
0010
0100
0001
0000
1000
0100
0001
0000
0010
0100
0001
0000
0010
0100
0001
0000
,  // measure 53
1000
0100
0001
0000
0010
0100
0001
0000
1000
0100
0001
0000
0010
0100
0001
0000
,  // measure 54
1000
0100
0001
0000
0010
0100
0001
0000
0001
0100
0010
0000
0001
0100
0010
0000
,  // measure 55
0001
0100
1000
0000
0001
0100
0010
0000
0001
0010
0100
0000
0001
1000
0100
0000
,  // measure 56
0001
0010
0100
0000
0001
0100
1000
0000
,  // measure 57
0100
0010
0001
0100
1000
0000
0100
0001
,  // measure 58
0010
0100
0010
0001
0100
0010
0001
0100
,  // measure 59
1000
0010
0001
0100
1000
0000
0000
0100
,  // measure 60
0000
0100
0010
0001
1000
0100
0000
0000
,  // measure 61
0000
0100
0010
0002
0000
0000
0103
0001
,  // measure 62
0100
0001
0010
0001
0100
1000
0000
0001
,  // measure 63
0100
0000
0001
0010
0000
0001
1000
0001
,  // measure 64
0100
0010
0001
0100
0001
0100
0010
0001
,  // measure 65
1000
0001
0100
0010
0001
0100
1000
0001
,  // measure 66
0100
0010
0001
0100
0001
0100
0010
0001
,  // measure 67
1000
0001
0100
0010
0001
0100
1000
0010
,  // measure 68
0000
0100
0010
0001
0100
2000
0000
0000
,  // measure 69
3000
0001
0100
0010
0001
0100
0000
0000
,  // measure 70
0000
1000
0010
0001
0100
1000
0000
0001
,  // measure 71
0100
0001
0100
0010
1000
0100
0001
0010
,  // measure 72
0001
0010
0100
0000
0010
0100
0001
0000
1000
0001
1000
0000
0010
0100
0001
0010
,  // measure 73
0100
0001
1000
0001
0010
0100
0001
0000
0010
0100
0001
0000
1000
0100
0001
0000
,  // measure 74
0010
0100
0001
0000
1000
0100
0001
0000
0010
0100
0001
0000
1000
0100
0001
0010
,  // measure 75
0100
0001
1000
0000
0100
0001
0010
0000
0100
0001
0100
0000
0010
0100
0001
0000
,  // measure 76
1000
0100
0001
0000
0010
0100
0001
0000
1000
0100
0001
0000
0010
0100
0001
1000
,  // measure 77
0001
0010
0100
0001
0010
0100
0001
0000
1000
0100
0001
0000
0010
0100
0001
0000
,  // measure 78
1000
0100
0001
0000
0010
0100
0001
0000
1000
0100
0001
0000
0010
0100
0001
0000
,  // measure 79
0010
0001
0100
0000
0010
0001
0100
0000
1000
0001
0100
0000
0010
0001
0100
0000
,  // measure 80
1000
0010
0100
0000
0001
0100
0001
0000
0010
0100
0001
0000
1000
0100
0001
0000
,  // measure 81
0010
0100
0001
0000
1000
0100
0001
0000
0010
0100
0001
0000
1000
0100
0001
0000
,  // measure 82
0010
0100
0001
0000
1000
0100
0001
0000
0010
0100
0001
0000
1000
0100
0001
0000
,  // measure 83
0010
0100
0001
0000
0001
0100
0010
0000
0001
0100
0010
0000
0001
0100
1000
0000
,  // measure 84
1000
0001
0100
0000
0010
0001
0100
0000
0001
0100
0010
0000
0100
1000
0001
0000
,  // measure 85
0010
0001
0100
0000
0010
0001
0100
0000
1000
0001
0100
0000
0010
0001
0100
0000
,  // measure 86
0010
0001
0100
0000
1000
0001
0100
0000
0010
0001
0100
0000
0010
0001
1000
0000
,  // measure 87
0001
0100
0010
0000
0001
0100
0010
0000
0100
0010
0001
0000
0001
0100
1000
0000
,  // measure 88
0010
0001
1000
0000
0001
0100
0010
0000
0001
0010
0100
0000
0001
0100
0010
0000
,  // measure 89
0001
0100
1000
0000
0001
0100
0010
0000
0001
0100
0010
0000
0001
0100
1000
0000
,  // measure 90
0100
0010
0001
0000
0010
0100
0001
0000
1000
0100
0001
0000
0010
0100
0001
0000
,  // measure 91
1000
0100
0001
0000
0010
0100
0001
0000
1000
0100
0001
0000
0010
0100
0001
0000
,  // measure 92
1000
0100
0001
0000
0010
1000
0100
0000
0010
0100
0001
0000
1000
0100
0001
0000
,  // measure 93
0010
0100
0001
0000
1000
0100
0001
0000
0010
0100
0001
0000
1000
0100
0001
0000
,  // measure 94
0010
0100
0001
0000
1000
0100
0001
0000
0010
0100
0001
0000
1000
0100
0001
0000
,  // measure 95
0010
0100
0001
0000
0010
0100
0001
0000
1000
0100
0001
0000
0010
0100
0001
0000
,  // measure 96
0000
0000
0010
0001
1000
0001
0100
0010
,  // measure 97
0000
0001
0100
0010
0001
0000
0100
0000
,  // measure 98
0010
0000
0000
0000
0000
0000
1000
0000
0100
0001
0100
0000
0010
0000
0100
0000
,  // measure 99
0000
0000
0001
0100
0001
0000
0010
0000
0100
0000
0000
0000
0001
0000
0000
0000
,  // measure 100
0010
0000
0000
0000
0000
0000
0100
0000
0001
0010
0001
0000
0001
0000
0100
0000
,  // measure 101
0000
0000
1000
0001
1000
0000
0100
0010
0001
0000
0000
0000
0010
0000
0000
0000
,  // measure 102
0001
0000
0000
0000
0000
0000
0100
0000
1000
0000
1000
0001
1000
0000
0100
0000
,  // measure 103
0000
0000
0010
0001
0010
0000
0100
0010
0001
0000
0000
0000
0001
0000
1000
0000
,  // measure 104
0001
0000
0010
0001
1000
0001
0100
0000
,  // measure 105
0000
0001
0100
0001
0010
0000
0001
0100
,  // measure 106
1000
0000
0100
0000
0010
0000
0001
0010
0001
0000
1000
0000
0100
0000
0001
0000
,  // measure 107
0010
0000
0001
1000
0100
0000
0010
0000
0100
0000
0000
0000
1000
0000
0000
0000
,  // measure 108
0001
0000
0000
0000
0000
0000
0100
0000
0001
0010
0001
0000
1000
0000
0100
0000
,  // measure 109
0001
0000
0010
0100
0001
0000
0010
0000
0100
0000
0000
0000
0100
0000
0000
0000
,  // measure 110
1000
0000
0000
0000
0000
0000
0100
0001
0100
0000
0010
0000
0100
0000
0001
0000
,  // measure 111
0000
0000
1000
0100
1000
0000
0100
0000
0001
0000
0000
0000
0010
0000
0000
0000
,  // measure 112
0100
0010
0100
0000
0001
0100
0001
0000
0010
0100
0010
0000
1000
0001
1000
0001
,  // measure 113
0010
0100
0001
1000
0100
0001
0010
0000
0100
0001
0100
0000
0010
0100
0001
0000
,  // measure 114
1000
0100
0001
0000
0010
0100
0001
0000
1000
0100
0001
0000
0010
0100
0001
0100
,  // measure 115
1000
0100
0001
0000
0010
0100
0001
0000
0100
0010
0001
0000
0010
0100
0001
0000
,  // measure 116
1000
0100
0001
0000
0010
0100
0001
0000
1000
0100
0001
0000
0010
0100
0001
0010
,  // measure 117
0100
0001
1000
0000
0100
0001
0010
0000
0100
0001
1000
0000
0010
0100
0001
0000
,  // measure 118
0010
0100
0001
0000
0001
0100
0010
0000
0001
0100
0010
0000
0001
0100
1000
0000
,  // measure 119
0001
0100
0010
0000
0001
0100
1000
0000
0001
0100
0010
0000
0001
0100
1000
0000
,  // measure 120
0010
0100
0001
0000
0010
0100
0001
0000
1000
0100
0001
0000
0010
0100
0001
0000
,  // measure 121
1000
0100
0001
0000
0010
0100
0001
0000
1000
0100
0001
0000
0010
0100
0001
0000
,  // measure 122
1000
0100
0001
0000
0010
0100
0001
0000
1000
0100
0001
0000
0010
0100
0001
0000
,  // measure 123
0010
0100
0010
0000
0100
0001
1000
0000
0100
0001
0010
0000
0100
0001
1000
0000
,  // measure 124
0100
0001
0010
0000
0100
0001
1000
0000
0010
0100
0001
0000
0010
0100
0001
0000
,  // measure 125
0100
0001
0100
0000
0010
0100
0001
0000
1000
0100
0001
0000
0010
0100
0001
0000
,  // measure 126
0100
0010
0001
0000
0001
0100
0010
0000
0001
0100
1000
0000
0001
0010
0010
0000
,  // measure 127
0001
0100
1000
0000
0001
0100
0010
0000
0001
0010
1000
0000
0001
0100
0010
0000
,  // measure 128
0001
0100
0010
0000
0001
0100
1000
0000
0001
0100
0010
0000
0001
0100
0010
0000
,  // measure 129
0001
1000
0100
0000
0001
0010
0100
0000
0010
0100
0010
0000
1000
0100
0001
0000
,  // measure 130
0010
0100
0001
0000
1000
0100
0001
0000
0010
0100
0001
0000
1000
0100
0001
0000
,  // measure 131
0010
0100
0001
0000
0010
0100
0001
0000
0010
0100
0010
0000
1000
0100
0001
0000
,  // measure 132
0010
0100
0001
0000
0100
0010
1000
0000
0100
0001
0010
0000
0100
0001
0100
0000
,  // measure 133
0010
0100
0001
0000
1000
0100
0001
0000
0010
0100
0001
0000
1000
0100
0001
0000
,  // measure 134
0010
0100
0001
0000
0100
0001
0010
0000
0100
0001
1000
0000
0100
0001
0010
0000
,  // measure 135
0100
0001
1000
0000
0001
0010
0100
0000
0001
0010
0100
0000
0001
0010
0100
0000
,  // measure 136
1000
0100
0001
0000
0000
0000
0000
0000
0000
0000
0000
0000
0000
0000
1000
0100
,  // measure 137
0001
0010
0100
0001
0010
0000
0001
1000
0000
0100
0001
0000
0010
0000
0100
0000
,  // measure 138
0001
0000
0000
0100
0000
0000
0000
0000
0100
0000
0000
0010
0000
0000
0000
0000
;
