#TITLE:i went back to ibiza;
#SUBTITLE:(but the remix is from the seeb remix of mike posner's i took a pill in ibiza);
#ARTIST:Mike Posner;
#TITLETRANSLIT:;
#SUBTITLETRANSLIT:;
#ARTISTTRANSLIT:;
#GENRE:;
#CREDIT:;
#BANNER:;
#BACKGROUND:;
#LYRICSPATH:;
#CDTITLE:;
#MUSIC:I Went Back To Ibiza (Seeb Remix) Mike Posner.ogg;
#OFFSET:0.000000;
#SAMPLESTART:100.059883;
#SAMPLELENGTH:12.000000;
#SELECTABLE:YES;
#BPMS:0.000000=102.000000
;
#STOPS:0.000000=1.500000
;
#BGCHANGES:;
#KEYSOUNDS:;
#ATTACKS:;

//---------------dance-single - ----------------
#NOTES:
     dance-single:
     :
     Hard:
     11:
     0.364832,0.606533,0.041441,0.160585,0.455855,493.000000,485.000000,8.000000,31.000000,0.000000,0.000000,0.364832,0.606533,0.041441,0.160585,0.455855,493.000000,485.000000,8.000000,31.000000,0.000000,0.000000:
// measure 0
0000
0000
0000
0000
,  // measure 1
0000
0000
0000
0000
,  // measure 2
0000
0000
0000
0000
,  // measure 3
0000
0000
0000
0000
,  // measure 4
1000
0000
0000
0001
0000
0000
0000
0000
0000
0000
0000
0000
0000
0100
0001
1000
,  // measure 5
0001
0000
1000
0100
0001
0000
0010
0100
0000
0000
0000
0000
0000
1000
0100
0001
,  // measure 6
0010
0000
0100
0001
1000
0001
0010
0001
0010
0100
0001
0100
0001
1000
0001
1000
,  // measure 7
0100
0001
0010
0000
0100
0000
0001
0010
0000
0010
0100
0001
1000
0001
0010
0100
,  // measure 8
0010
0000
0000
0001
0000
0000
1000
0000
0000
0000
0100
0001
1000
0001
0010
0100
,  // measure 9
0001
0000
0000
0010
0000
0000
0001
0000
0000
0000
1000
0100
0001
0100
0001
0010
,  // measure 10
0100
0000
0010
0001
0100
0000
0001
1000
0010
0000
0100
0001
0010
0100
0000
0001
,  // measure 11
0000
0000
0000
0000
0000
0000
0000
0000
0000
0000
1000
0100
0001
0010
0100
0000
,  // measure 12
0001
0000
0000
0100
0000
0000
0010
0000
0000
0000
0001
0100
0001
0100
1010
0100
,  // measure 13
0010
0000
0000
0001
0000
0000
1000
0000
0000
0000
0100
0001
0010
0000
0001
0100
,  // measure 14
1000
0100
0000
0001
0000
0010
0000
0100
0000
0000
0010
0000
0100
0000
0000
0000
,  // measure 15
0010
0001
0000
0100
0000
0010
0000
0001
0000
0000
0100
0000
0000
0000
0000
0000
,  // measure 16
0220
0000
0000
0000
0000
0000
0000
0000
0330
0000
0000
0000
1000
0000
0000
0200
,  // measure 17
0000
0000
0000
0000
0000
0000
0000
0000
0000
0300
0000
0001
0010
0000
0000
0200
,  // measure 18
0000
0000
0000
0000
0000
0000
0000
0000
0000
0300
0000
0001
1000
0000
0000
0200
,  // measure 19
0000
0000
0000
0000
0000
0000
0000
0000
0000
0000
0300
0000
0010
0001
0000
0000
,  // measure 20
2000
0000
0000
0000
0000
0000
0000
0000
3000
0000
0000
0000
0100
0000
0000
0020
,  // measure 21
0000
0000
0000
0000
0000
0000
0000
0000
0030
0000
0000
0001
1000
0000
0000
0200
,  // measure 22
0000
0000
0000
0000
0000
0000
0000
0000
0300
0000
0000
0000
0010
0000
0000
0200
,  // measure 23
0000
0000
0000
0000
0000
0000
0300
1001
,  // measure 24
0010
0000
0000
0000
0001
0000
0000
0000
0001
0000
0000
0100
0000
0000
0010
0000
,  // measure 25
0100
0001
1000
0100
0000
0200
0020
0330
,  // measure 26
0001
0000
0100
0000
1000
0000
0000
0000
0100
0000
0000
0010
0000
0000
0100
0000
,  // measure 27
0001
0000
0000
0001
0000
0000
0000
1000
0100
0000
0000
0000
0010
0000
0110
0000
,  // measure 28
0100
0000
0000
0000
0010
0000
0000
0000
0001
0000
0000
0100
0000
0000
0010
0000
,  // measure 29
0100
0001
0100
1000
0000
0200
0020
0330
,  // measure 30
0001
0000
0100
0000
1000
0000
0000
0000
0100
0000
0000
0010
0000
0000
0001
0000
,  // measure 31
0100
0000
0000
0010
0000
0000
0000
0001
0010
0000
0000
0010
0100
0000
0001
0010
,  // measure 32
0100
0000
0000
0000
0001
0000
0000
0000
0010
0000
0000
0100
0000
0000
0001
0000
,  // measure 33
0100
0010
0100
0001
0000
0200
0020
0330
,  // measure 34
0100
0000
0010
0000
0001
0000
0000
0000
0010
0000
0000
0001
0000
0000
1000
0000
,  // measure 35
0001
0000
0000
0100
0000
0000
0000
0010
0001
0000
0000
1000
0010
0000
1000
0001
,  // measure 36
0010
0000
0000
0000
0100
0000
0000
0000
0001
0000
0000
0100
0000
0000
0010
0000
,  // measure 37
0100
0001
0100
1000
0000
0010
0001
0000
,  // measure 38
0001
0000
0010
0000
0100
0000
0000
0000
0010
0000
0000
0001
0000
0000
0100
0000
,  // measure 39
1000
0000
0000
0001
0000
0000
0000
0100
0010
0000
0000
0001
0000
0010
0001
1000
,  // measure 40
0001
0010
0000
0000
0000
0000
0000
0000
0000
0000
0000
0000
0000
1000
0100
0001
,  // measure 41
0010
0000
0010
0000
0100
0000
0001
0010
0000
0000
0000
0000
0000
0000
1000
0100
,  // measure 42
0001
0000
0010
0100
0001
0000
0100
0010
0100
0000
0001
0010
0100
0001
0100
0010
,  // measure 43
0100
0001
1000
0001
0010
0000
0100
0001
0000
0000
0000
0010
0100
0000
0001
0100
,  // measure 44
1000
0000
0000
0100
0000
0000
0000
0000
0000
0000
0000
0000
0000
0000
0000
0100
,  // measure 45
0001
1000
0100
0000
0001
0010
0000
0001
0000
0000
0000
0000
0000
1000
0100
0000
,  // measure 46
0100
0000
0010
0001
0100
0000
0010
0001
0100
0000
0010
0000
0001
0000
0001
1000
,  // measure 47
0001
0100
1000
0010
0100
0000
0010
0000
0100
0000
0100
0001
1000
0001
0100
0010
,  // measure 48
0100
0000
0000
0010
0000
0000
0001
0000
0000
0000
0100
0010
0001
1000
0001
0100
,  // measure 49
1000
0000
0000
0010
0000
0000
0001
0000
0000
0000
0100
0010
0001
1000
0001
0100
,  // measure 50
1000
0000
0100
0001
0010
0000
0001
0100
1000
0000
0100
0001
0010
0100
0000
0002
,  // measure 51
0000
0000
0000
0000
0000
0000
0000
0003
0000
0000
0000
0100
1000
0100
0001
0000
,  // measure 52
0001
0000
0000
0100
0000
0000
0010
0000
0000
0000
0100
0010
0001
1000
0001
0100
,  // measure 53
1000
0000
0000
0010
0000
0000
0001
0000
0000
0000
1000
0100
0001
0000
0001
0100
,  // measure 54
1000
0100
0000
0001
0000
0010
0000
0001
0000
0000
0100
0000
0000
0000
0000
0000
,  // measure 55
0100
0010
0000
0001
0000
0100
0000
0010
0000
0000
0001
0000
0000
0000
0000
0000
,  // measure 56
2002
0000
0000
0000
0000
0000
0000
0000
0000
0000
3003
0000
0010
0000
0000
0002
,  // measure 57
0000
0000
0000
0000
0000
0000
0000
0000
0003
0000
0000
1000
0100
0000
0000
0020
,  // measure 58
0000
0000
0000
0000
0000
0000
0000
0000
0030
0000
0000
0001
1000
0000
0000
0200
,  // measure 59
0000
0000
0000
0000
0000
0000
0000
0000
0000
0000
0300
0000
0100
0010
0000
0000
,  // measure 60
2002
0000
0000
0000
0000
0000
0000
0000
3003
0000
0000
0000
0100
0000
0000
0002
,  // measure 61
0000
0000
0000
0000
0000
0000
0000
0003
0000
0000
0000
0001
1000
0000
0000
0200
,  // measure 62
0000
0000
0000
0000
0000
0000
0000
0000
0000
0300
0000
0001
0010
0000
0000
0200
,  // measure 63
0000
0000
0000
0000
0000
0000
0300
1001
,  // measure 64
0100
0000
0000
0000
0010
0000
0000
0000
0001
0000
0000
0100
0000
0000
0010
0000
,  // measure 65
0100
0001
0100
1000
0000
0200
0020
0330
,  // measure 66
0001
0000
0100
0000
1000
0000
0000
0000
0100
0000
0000
0010
0000
0000
0001
0000
,  // measure 67
0001
0000
0000
0100
0000
0000
0000
0001
0010
0000
0000
0100
0000
0000
1001
0000
,  // measure 68
0001
0000
0000
0000
0001
0000
0000
0000
0100
0000
0000
0010
0000
0000
0001
0000
,  // measure 69
1000
0001
0100
1000
0000
0001
0100
0000
,  // measure 70
0001
0000
0100
0000
1000
0000
0000
0000
0010
0000
0000
0100
0000
0000
0001
0000
,  // measure 71
1000
0000
0000
0100
0000
0000
0000
0001
0010
0000
0000
0001
0100
0000
0100
0010
,  // measure 72
0001
0000
0000
0000
0010
0000
0000
0000
0100
0000
0000
0001
0010
0000
0100
0000
,  // measure 73
0010
0000
0100
0000
0001
0000
1000
0000
0100
0000
0010
0100
0001
0000
0010
1000
,  // measure 74
0010
0000
0001
0000
0100
0000
0000
0000
0100
0000
0000
0001
0010
0000
0001
0100
,  // measure 75
0002
0000
0000
0000
0000
0000
0000
0000
0003
0000
0000
0000
1000
0100
0001
0010
,  // measure 76
0100
0000
0000
0000
0010
0000
0000
0000
0100
0000
0000
0001
0010
0000
0100
0000
,  // measure 77
0001
0000
0010
0000
0001
0000
0100
0000
1000
0000
0100
0001
0010
0000
0000
0001
,  // measure 78
1000
0000
0001
0000
0100
0000
0010
0000
0100
0000
0000
0010
1000
0000
0001
0010
,  // measure 79
0002
0100
0000
0100
,  // measure 80
0200
0000
0000
0303
;
