#VERSION:0.83;
#TITLE:i want my boyfriends to kiss;
#SUBTITLE:;
#ARTIST:Ashnikko;
#TITLETRANSLIT:;
#SUBTITLETRANSLIT:;
#ARTISTTRANSLIT:;
#GENRE:;
#ORIGIN:;
#CREDIT:;
#BANNER:;
#BACKGROUND:;
#PREVIEWVID:;
#JACKET:;
#CDIMAGE:;
#DISCIMAGE:;
#LYRICSPATH:;
#CDTITLE:;
#MUSIC:I Want My Boyfriends to Kiss.ogg;
#OFFSET:0.000000;
#SAMPLESTART:100.059883;
#SAMPLELENGTH:12.000000;
#SELECTABLE:YES;
#BPMS:0.000=156.000;
#STOPS:0.000=0.200;
#DELAYS:;
#WARPS:;
#TIMESIGNATURES:0.000=4=4;
#TICKCOUNTS:0.000=4;
#COMBOS:0.000=1;
#SPEEDS:0.000=1.000=0.000=0;
#SCROLLS:0.000=1.000;
#FAKES:;
#LABELS:0.000=Song Start;
#BGCHANGES:;
#KEYSOUNDS:;
#ATTACKS:
;

//---------------dance-single - ----------------
#NOTEDATA:;
#CHARTNAME:;
#STEPSTYPE:dance-single;
#DESCRIPTION:;
#CHARTSTYLE:;
#DIFFICULTY:Hard;
#METER:15;
#RADARVALUES:0.848412,0.907425,0.532356,0.013827,0.878042,859.000000,782.000000,77.000000,2.000000,0.000000,0.000000,0.000000,0.000000,0.000000,0.848412,0.907425,0.532356,0.013827,0.878042,859.000000,782.000000,77.000000,2.000000,0.000000,0.000000,0.000000,0.000000,0.000000;
#CREDIT:;
#NOTES:
// measure 0
0000
0000
0000
0000
,  // measure 1
0000
0000
0000
0000
,  // measure 2
0000
0000
0000
0000
,  // measure 3
0000
0000
0000
0000
0000
0100
0010
0001
,  // measure 4
1000
0000
0001
0000
0100
0000
0010
0000
1000
0100
0000
0001
0010
0000
0000
0000
,  // measure 5
0100
0000
0010
0000
0001
0000
0000
0000
1000
0010
0000
0100
0001
0000
1000
0000
,  // measure 6
0100
0000
0100
0000
0001
0000
1000
0000
0001
0100
0000
0010
0001
0000
0100
0000
,  // measure 7
1000
0000
0001
0000
0100
0000
0010
0000
0010
0001
0000
0100
1000
0000
0001
0000
,  // measure 8
1001
0000
0001
0000
0100
0000
0001
0000
1000
0100
0000
0001
0010
0000
0010
0000
,  // measure 9
0110
0000
0010
0000
0001
0000
1000
0000
0001
0100
0000
0001
1000
0000
0100
0000
,  // measure 10
0110
0000
0001
0000
1000
0000
0100
0000
0001
0010
0000
0100
0001
0000
0010
0000
,  // measure 11
1001
0000
1000
0000
0001
0000
0100
0000
0010
0001
0000
0100
1000
0000
0010
0000
,  // measure 12
0101
0000
1000
0000
0001
0000
0100
0000
0001
0010
0000
0100
1000
0000
0010
0000
,  // measure 13
0110
0000
1000
0000
0100
0000
0001
0000
0010
0100
0000
0001
1000
0000
0100
0000
,  // measure 14
1001
0000
0100
0000
0010
0000
0100
0000
0001
0010
0000
1000
0100
0000
0001
0000
,  // measure 15
1000
0000
0000
0001
0000
0000
0010
0000
0100
0000
0000
0000
0000
0000
0000
0000
,  // measure 16
0110
0000
0000
0001
1000
0100
0001
0000
0110
0000
0000
0001
1000
0100
0001
0000
,  // measure 17
0110
0000
0000
0001
1000
0001
0100
0000
0110
0000
0000
0010
0001
0100
1000
0000
,  // measure 18
0110
0000
0000
0100
0001
0100
1000
0000
0110
0000
0000
0001
0100
1000
0010
0000
,  // measure 19
0110
0000
0000
0100
0001
0100
1000
0000
0110
0000
0001
0000
1001
0000
0000
0000
,  // measure 20
1001
0000
0000
0001
1000
0100
0001
0000
0110
0000
0000
0001
1000
0100
0001
0000
,  // measure 21
0110
0000
0000
1000
0100
0001
0100
0000
1001
0000
0000
0100
0001
0010
0100
0000
,  // measure 22
1001
1001
1001
1001
,  // measure 23
1001
0000
0000
0000
1001
0000
0000
0000
1000
0001
1000
0001
1000
0001
1000
0001
,  // measure 24
1000
0000
0000
0100
0001
1000
0001
0000
0010
0000
0001
0100
0001
1000
0001
0000
,  // measure 25
0010
0000
0000
0100
0001
1000
0001
0000
0010
0000
0001
0100
0001
1000
0001
0000
,  // measure 26
0010
0000
0000
0100
0001
1000
0001
0000
0010
0000
0000
0100
0001
1000
0001
0000
,  // measure 27
0010
0000
0000
0001
1000
0001
0100
0000
0010
0000
0000
0100
0001
1000
0001
0000
,  // measure 28
0010
0000
0000
0001
0100
0001
1000
0000
0010
0000
0100
0001
1000
0001
0010
0000
,  // measure 29
0100
0000
0000
0001
0010
0100
0001
0000
1000
0000
0010
0100
0001
0100
0001
0000
,  // measure 30
1000
0000
0000
0100
0001
1000
0100
0000
0001
0000
0000
0010
0100
0001
1000
0000
,  // measure 31
0010
0100
0000
0001
1000
0100
0001
0000
0010
0100
0001
0010
0001
0100
0001
0000
,  // measure 32
1000
0001
0000
0010
0100
0000
0000
0000
,  // measure 33
0000
0100
0010
0000
,  // measure 34
0000
0000
1000
0000
0100
0000
0010
0100
,  // measure 35
0001
1000
0000
0001
0100
0000
0000
0000
,  // measure 36
0000
0000
1000
0100
0001
0000
0000
0000
,  // measure 37
0000
0000
0001
0100
1000
0000
0000
0000
,  // measure 38
0000
0010
0001
0100
1000
0000
0100
0001
,  // measure 39
1000
0000
0000
0001
0000
0000
0010
0000
0100
0000
0000
0000
0000
0000
0000
0000
,  // measure 40
0000
0100
0001
0000
1000
0100
0000
0000
,  // measure 41
0000
0010
0001
1000
0100
0001
0000
0000
,  // measure 42
0000
0100
1000
0000
0001
0010
0000
0000
,  // measure 43
1000
0100
0001
0000
0110
0110
0110
0110
,  // measure 44
0110
0000
0000
0001
1000
0100
0001
0000
0110
0000
0000
0001
1000
0100
0001
0000
,  // measure 45
0110
0000
0000
0010
0100
0001
1000
0000
0110
0000
0000
0010
0100
0001
1000
0000
,  // measure 46
0110
0000
0000
0010
0100
0001
1000
0000
0110
0000
0000
0010
0100
0001
1000
0000
,  // measure 47
0110
0000
0000
0010
0100
0001
1000
0000
0110
0000
0001
0000
1001
0000
0000
0000
,  // measure 48
1001
0000
0000
0001
1000
0100
0001
0000
0110
0000
0000
0010
0100
0001
1000
0000
,  // measure 49
0110
0000
0000
0001
1000
0100
0001
0000
0110
0000
0000
1000
0100
0001
0010
0000
,  // measure 50
0110
0110
0110
0110
,  // measure 51
0110
0000
0000
0000
0110
0000
0000
0000
0000
0000
1000
0100
0001
0100
0001
0010
,  // measure 52
0100
0000
0000
0001
1000
0100
0001
0000
0010
0000
0100
0001
1000
0001
0010
0000
,  // measure 53
0100
0000
0000
0001
1000
0100
0001
0000
0010
0000
0001
0100
0001
1000
0001
0000
,  // measure 54
0010
0000
0000
0100
0001
1000
0001
0000
0010
0000
0100
0001
1000
0001
0010
0000
,  // measure 55
1000
0000
0000
0100
0001
1000
0001
0000
0010
0000
0000
0100
0001
1000
0001
0000
,  // measure 56
0010
0000
0000
0100
0001
1000
0001
0000
0010
0000
0100
0001
1000
0010
0100
0000
,  // measure 57
0001
0000
0000
0100
0001
0010
0100
0000
0001
0000
0010
1000
0001
0100
0010
0000
,  // measure 58
0001
0000
0000
1000
0100
0001
0010
0000
0100
0000
1000
0001
0010
0100
0001
0000
,  // measure 59
0100
0000
0000
0001
0100
1000
0001
0000
0100
0000
0010
1000
0001
0100
0001
0000
,  // measure 60
1001
0000
0000
0010
0100
0001
1000
0000
0010
0000
0000
0100
0001
1000
0001
0000
,  // measure 61
0100
0000
0010
0100
0001
1000
0100
0000
0010
0000
0000
0100
0001
1000
0001
0000
,  // measure 62
1000
0000
0010
0100
0001
1000
0001
0010
0100
0000
0001
1000
0100
0010
0100
0000
,  // measure 63
0010
0000
0001
1000
0001
0100
1000
0000
0101
0000
0000
0000
0110
0000
0000
0000
,  // measure 64
1001
0000
0000
0010
0100
0001
1000
0000
0110
0000
0000
0001
1000
0100
0001
0000
,  // measure 65
0110
0000
0001
1000
0100
0001
0010
0000
0001
0000
1000
0010
0100
0001
1000
0000
,  // measure 66
0110
0000
0000
0001
1000
0100
0001
0000
0010
0000
0001
0100
0010
0100
0001
0000
,  // measure 67
0100
0010
0000
0000
0001
0100
1000
0010
,  // measure 68
1001
0000
0000
0001
1000
0100
0001
0000
1001
0000
0000
0010
0100
0001
1000
0000
,  // measure 69
1001
0000
0000
0010
0100
0001
1000
0000
1001
0000
0000
0010
0100
0001
1000
0000
,  // measure 70
1001
0000
0000
0010
0100
0001
1000
0000
1001
0000
0000
0010
0100
0001
1000
0000
,  // measure 71
1001
1001
1001
1001
,  // measure 72
1001
0000
0000
0001
1000
0100
0001
0000
1001
0000
0000
0010
0100
0001
1000
0000
,  // measure 73
1001
0000
0000
0010
0100
0001
1000
0000
1001
0000
0000
0010
0100
0001
1000
0000
,  // measure 74
1001
0000
0000
0001
0100
0001
1000
0000
1001
0000
0000
1000
0001
0100
0010
0000
,  // measure 75
1001
1001
1001
1001
,  // measure 76
1000
0000
0000
0010
0100
0001
1000
0000
0100
0000
0100
0010
0001
1000
0100
0000
,  // measure 77
1000
0000
0000
0010
0100
0001
1000
0000
1000
0000
0100
0010
0001
1000
0001
0000
,  // measure 78
0100
0000
0000
0001
1000
0100
0001
0000
0100
0000
1000
0100
0001
0100
0001
0000
,  // measure 79
1000
0000
0000
0010
0100
0001
1000
0000
1000
0000
0000
0010
0100
0001
1000
0000
,  // measure 80
0100
0000
0000
0010
0100
0001
1000
0000
0100
0000
1000
0010
0100
0001
1000
0000
,  // measure 81
1000
0000
0000
0010
0100
0001
1000
0000
1000
0000
0001
0010
0100
0001
1000
0000
,  // measure 82
0100
0000
0000
0010
0100
0001
1000
0000
1000
0000
0010
0100
0001
1000
0001
0000
,  // measure 83
1000
0000
0000
0010
0100
0001
1000
0000
0100
0000
0000
0001
1000
0100
0001
0000
,  // measure 84
0010
0000
0000
0100
0001
1000
0001
0000
0010
0000
0000
0100
0001
1000
0001
0000
,  // measure 85
0010
0000
0000
0100
0001
1000
0001
0000
0010
0000
0000
0100
0001
1000
0001
0000
,  // measure 86
0010
0000
0000
0100
0010
0001
1000
0000
0010
0000
0000
0100
0001
1000
0001
0000
,  // measure 87
0100
0000
0000
0010
0001
1000
0100
0000
0001
0000
0000
1000
0100
0001
0010
0000
,  // measure 88
0100
0000
0000
0010
0001
1000
0100
0000
0001
0000
0000
1000
0100
0001
0010
0000
,  // measure 89
0010
0000
0000
0001
1000
0001
0100
0000
0010
0000
0000
1000
0001
0100
0001
0000
,  // measure 90
0010
0000
0000
0001
1000
0001
0100
0000
0010
0000
0000
0001
0100
0001
0100
0000
,  // measure 91
1000
0000
0000
0001
0100
0001
0010
0000
0100
0000
0000
0000
2002
0000
0000
0000
,  // measure 92
0000
0000
0000
0000
,  // measure 93
0000
0000
0000
3003
;
