#VERSION:0.83;
#TITLE:i like ur look;
#SUBTITLE:;
#ARTIST:Kim Petras;
#TITLETRANSLIT:;
#SUBTITLETRANSLIT:;
#ARTISTTRANSLIT:;
#GENRE:;
#ORIGIN:;
#CREDIT:;
#BANNER:;
#BACKGROUND:;
#PREVIEWVID:;
#JACKET:;
#CDIMAGE:;
#DISCIMAGE:;
#LYRICSPATH:;
#CDTITLE:;
#MUSIC:Kim Petras - I Like Ur Look (Lyrics).ogg;
#OFFSET:0.000000;
#SAMPLESTART:100.059883;
#SAMPLELENGTH:12.000000;
#SELECTABLE:YES;
#BPMS:0.000=134.000;
#STOPS:0.000=1.100;
#DELAYS:;
#WARPS:;
#TIMESIGNATURES:0.000=4=4;
#TICKCOUNTS:0.000=4;
#COMBOS:0.000=1;
#SPEEDS:0.000=1.000=0.000=0;
#SCROLLS:0.000=1.000;
#FAKES:;
#LABELS:0.000=Song Start;
#BGCHANGES:;
#KEYSOUNDS:;
#ATTACKS:
;

//---------------dance-single - ----------------
#NOTEDATA:;
#CHARTNAME:;
#STEPSTYPE:dance-single;
#DESCRIPTION:;
#CHARTSTYLE:;
#DIFFICULTY:Hard;
#METER:11;
#RADARVALUES:0.481851,0.663504,0.116711,0.093369,0.093369,578.000000,558.000000,20.000000,16.000000,0.000000,0.000000,0.000000,0.000000,0.000000,0.481851,0.663504,0.116711,0.093369,0.093369,578.000000,558.000000,20.000000,16.000000,0.000000,0.000000,0.000000,0.000000,0.000000;
#CREDIT:;
#NOTES:
// measure 0
0000
0000
0000
0000
,  // measure 1
0000
0000
0000
0000
,  // measure 2
0000
0000
0000
0000
,  // measure 3
0000
0000
0000
0000
1000
0100
0001
0100
,  // measure 4
0001
0000
0100
0100
0001
0000
1000
0010
,  // measure 5
0001
0000
0100
1000
0001
0000
0010
0100
,  // measure 6
1000
0000
0001
0100
1000
0000
0001
0100
,  // measure 7
0010
0000
0001
0100
1000
0000
0001
0100
,  // measure 8
1000
0000
1000
0001
0100
0000
0001
0010
,  // measure 9
0001
0000
0001
0100
1000
0000
0001
0100
,  // measure 10
1000
0000
0001
0100
0010
0000
0001
0100
,  // measure 11
1000
0000
0100
0010
0001
0000
0100
1000
,  // measure 12
0001
0000
0100
0001
1000
0001
0010
0001
,  // measure 13
1000
0001
0100
0010
0001
1000
0001
0100
,  // measure 14
1000
0000
0010
1000
0001
0100
0010
0001
,  // measure 15
1000
0001
0100
0010
0001
1000
0001
0100
,  // measure 16
1000
0000
0001
1000
0001
0100
0010
0001
,  // measure 17
1000
0001
0100
0010
0001
1000
0001
0100
,  // measure 18
1000
0100
0001
1000
0100
0001
0000
0010
,  // measure 19
0000
0000
0100
0001
0000
0000
1000
0000
,  // measure 20
0101
0100
0000
0100
0001
0000
0010
0000
,  // measure 21
1001
1000
0000
0001
0100
0000
0010
0000
,  // measure 22
0101
0100
0000
0001
1000
0001
0100
0010
,  // measure 23
1001
1000
0000
0001
0100
0000
0010
0000
,  // measure 24
0101
0100
0000
0010
0001
0000
0100
0000
,  // measure 25
1000
0000
0001
0100
,  // measure 26
0010
0001
0100
2000
0000
3000
0100
0000
,  // measure 27
0001
0010
0100
0002
0000
0000
0013
0000
,  // measure 28
0000
0000
0010
0000
0000
0000
0100
0010
,  // measure 29
0001
0000
1000
0100
0001
0000
0001
0100
,  // measure 30
1000
0000
0001
0100
1000
0000
0010
0001
,  // measure 31
0100
0000
0001
0100
1000
0000
0001
0100
,  // measure 32
1000
0000
0010
0001
0100
0000
0000
0100
,  // measure 33
1000
0000
0010
0001
0100
0000
0001
0100
,  // measure 34
1000
0000
0001
0100
1000
0000
0001
0100
,  // measure 35
0010
0000
0001
1000
0100
0000
0001
0100
,  // measure 36
0010
0000
0001
0100
1000
0000
0100
0001
,  // measure 37
1000
0010
0001
1000
0001
0100
0010
0001
,  // measure 38
1000
0001
0100
0010
0100
0001
0100
0010
,  // measure 39
0100
1000
0001
0100
0010
0001
1000
0001
,  // measure 40
0100
0010
0100
0001
0100
1000
0001
0100
,  // measure 41
0010
0001
1000
0001
0100
0010
0001
1000
,  // measure 42
0001
0100
0010
0001
1000
0001
0100
0010
,  // measure 43
1001
1001
0010
0100
0001
1000
0000
0100
,  // measure 44
0000
0000
1000
0001
0100
0000
0010
0000
,  // measure 45
1001
0001
0100
1000
0001
0000
0100
0000
,  // measure 46
0101
0100
0000
0010
0100
0000
0010
0000
,  // measure 47
1001
1000
0000
0100
0001
0100
0010
0000
,  // measure 48
1001
1000
0000
0001
0100
0000
0001
0000
,  // measure 49
0110
0100
0000
0001
1000
0000
0100
0000
,  // measure 50
0110
0010
0000
0001
1000
0000
0100
0000
,  // measure 51
0100
0001
0100
2000
0000
3000
0100
0000
,  // measure 52
0010
0100
0001
2000
0000
3000
0001
0000
,  // measure 53
0100
0000
0000
0000
1000
0000
0001
0000
0010
0000
0100
0001
0000
0000
2000
0000
,  // measure 54
0000
3000
0100
0010
0001
1000
0001
0100
,  // measure 55
1000
0000
0001
0000
0100
0000
0010
0000
0100
0001
1000
0100
0001
0000
0100
0000
,  // measure 56
0000
0000
0010
0100
0001
1000
0001
0010
,  // measure 57
0100
0000
0000
0000
0100
0000
0010
0000
1000
0000
0100
0001
0000
0010
0100
0000
,  // measure 58
0000
0000
0010
0100
0001
1000
0001
0010
,  // measure 59
0100
0000
0001
0000
1000
0000
0100
0000
0010
0001
0100
0010
0001
1000
0001
0100
,  // measure 60
1000
0001
0100
0010
0001
1000
0001
0100
,  // measure 61
2000
0100
0000
3100
,  // measure 62
1000
0001
1000
0001
0010
0100
0001
1000
0001
0000
0000
0000
0010
0000
0000
0000
,  // measure 63
1000
0000
0100
0000
0001
0000
1000
0000
0001
0000
0010
0100
0000
0001
1000
0000
,  // measure 64
0200
0300
0010
0100
,  // measure 65
0100
0000
0010
0000
0100
0000
0001
0000
1000
0000
0100
0001
0000
1000
0100
0000
,  // measure 66
0002
0000
0000
0003
0000
0000
0100
0010
0001
0000
0000
0000
0000
0000
0000
0000
,  // measure 67
1000
0000
0001
0000
0100
0000
0010
0000
1000
0000
0100
0001
0000
0010
0100
0000
,  // measure 68
0001
0000
0000
0100
,  // measure 69
1000
0000
0001
0000
0100
0000
0010
0000
1000
0000
0100
0001
0000
0010
0100
0000
,  // measure 70
0001
0020
0000
0000
,  // measure 71
0000
0000
0030
0000
0100
0001
1000
0001
,  // measure 72
0010
0100
0001
1000
0001
0010
0100
0001
,  // measure 73
1000
0001
0010
0100
0001
1000
0001
0100
,  // measure 74
0001
1000
0001
0010
0100
0000
0001
0000
,  // measure 75
1001
1000
0000
0001
0010
0000
0100
0000
,  // measure 76
1001
1000
0000
0100
0100
0000
0010
0000
,  // measure 77
0110
0100
0000
0001
1000
0100
0001
0000
,  // measure 78
1001
1000
0000
0001
0010
0000
0100
0000
,  // measure 79
1001
0010
0000
0100
0001
0000
0010
0000
,  // measure 80
0110
0100
0000
0000
0100
0000
0010
0000
,  // measure 81
0100
0001
0100
2000
3000
0000
0001
0000
,  // measure 82
0010
0000
0100
0000
0001
0000
2000
3000
0000
0000
0100
0000
0001
0000
1000
0000
,  // measure 83
0001
0100
0010
0001
1000
0001
0100
0010
,  // measure 84
0001
0000
1000
0000
0001
0000
0100
0000
0010
0001
0100
0010
0001
1000
0001
0100
,  // measure 85
1000
0010
0100
0100
0001
0010
1000
0000
0010
0000
0001
0000
1000
0000
0001
0000
,  // measure 86
0100
0000
0010
0000
0001
0000
1000
0000
0001
0000
0100
0000
0010
0000
0001
0100
,  // measure 87
1000
0000
0001
0000
0100
0000
0001
0000
0100
0000
1000
0000
0001
0000
0100
0010
,  // measure 88
1000
0100
0001
0000
0010
0000
0100
0000
0010
0000
0001
0000
1000
0000
0001
0000
,  // measure 89
0100
0001
1000
0200
0000
0300
0001
0000
,  // measure 90
1000
0001
0100
2000
0000
0000
0002
0000
,  // measure 91
0000
0000
0000
0000
,  // measure 92
3003
0220
0000
0000
,  // measure 93
0000
0000
0000
0000
,  // measure 94
0000
0000
0000
0330
;
