#VERSION:0.83;
#TITLE:i kinda like how you know just how beautiful you are;
#SUBTITLE:;
#ARTIST:Artemas;
#TITLETRANSLIT:;
#SUBTITLETRANSLIT:;
#ARTISTTRANSLIT:;
#GENRE:;
#ORIGIN:;
#CREDIT:;
#BANNER:;
#BACKGROUND:;
#PREVIEWVID:;
#JACKET:;
#CDIMAGE:;
#DISCIMAGE:;
#LYRICSPATH:;
#CDTITLE:;
#MUSIC:artemas - i kinda like how u know just how beautiful u are (lyrics).ogg;
#OFFSET:0.000000;
#SAMPLESTART:100.059883;
#SAMPLELENGTH:12.000000;
#SELECTABLE:YES;
#BPMS:0.000=127.000;
#STOPS:0.000=0.100;
#DELAYS:;
#WARPS:;
#TIMESIGNATURES:0.000=4=4;
#TICKCOUNTS:0.000=4;
#COMBOS:0.000=1;
#SPEEDS:0.000=1.000=0.000=0;
#SCROLLS:0.000=1.000;
#FAKES:;
#LABELS:0.000=Song Start;
#BGCHANGES:;
#KEYSOUNDS:;
#ATTACKS:
;

//---------------dance-single - ----------------
#NOTEDATA:;
#CHARTNAME:;
#STEPSTYPE:dance-single;
#DESCRIPTION:;
#CHARTSTYLE:;
#DIFFICULTY:Hard;
#METER:14;
#RADARVALUES:0.580205,0.604142,0.065719,0.006572,0.272734,618.000000,608.000000,10.000000,1.000000,0.000000,0.000000,0.000000,0.000000,0.000000,0.580205,0.604142,0.065719,0.006572,0.272734,618.000000,608.000000,10.000000,1.000000,0.000000,0.000000,0.000000,0.000000,0.000000;
#CREDIT:;
#NOTES:
// measure 0
0000
0000
0000
0000
,  // measure 1
0000
0000
0000
0000
,  // measure 2
0001
0101
0001
0101
,  // measure 3
0100
0000
0000
0000
0110
0000
0000
0000
0010
0000
0000
0000
0001
0010
0100
0001
,  // measure 4
0010
0110
0001
1001
,  // measure 5
0100
0000
0110
0000
0001
0100
0011
0010
,  // measure 6
0010
0000
0001
0000
0100
0000
0001
0000
0100
0000
0010
0000
1000
0100
0001
0000
,  // measure 7
0010
0000
0001
0000
0100
0000
0010
0000
1000
0100
0001
1000
0010
0000
0100
0000
,  // measure 8
0001
0000
0100
0000
0010
0000
0001
0000
1000
0000
0001
0000
0100
0000
0010
0001
,  // measure 9
0100
0000
0001
0000
0100
0000
0010
0000
0001
0100
0001
0100
1000
0000
0010
0001
,  // measure 10
0100
0000
0010
0000
0001
0100
0001
0100
1000
0000
0001
0000
1000
0000
0001
0000
,  // measure 11
0100
0000
0001
0000
0100
0000
0010
0000
0001
1000
0001
0100
1000
0000
0010
0000
,  // measure 12
0100
0000
0010
0000
0001
0000
1000
0000
0001
0000
0100
0000
0010
0000
0001
0100
,  // measure 13
1000
0000
0010
0000
0001
0000
0100
0000
1000
0001
0100
0010
1000
0100
0001
0010
,  // measure 14
0100
0010
0001
0100
0001
0000
0100
0000
,  // measure 15
0001
0000
0000
0000
0100
0000
0001
0000
1000
0001
0100
0010
1000
0000
0010
0000
,  // measure 16
0010
0000
0001
0100
0010
0000
0001
0100
,  // measure 17
1000
0000
0000
0000
0100
0000
0010
0000
0001
1000
0001
0100
1000
0000
0100
0000
,  // measure 18
0010
0000
0001
0100
1000
0000
0010
0001
,  // measure 19
0100
0000
0000
0000
0100
0000
0010
0000
0001
0100
0001
0100
1000
0000
0001
0000
,  // measure 20
0100
0010
0001
0100
0001
0100
1000
0000
,  // measure 21
0000
0010
0001
0100
0001
0100
1000
0010
,  // measure 22
0100
1001
0001
0110
,  // measure 23
0001
0000
0000
0000
0011
0000
0001
0000
0100
0001
1000
0001
0010
0000
0100
0000
,  // measure 24
0001
0100
0010
0001
0100
0001
0100
0010
,  // measure 25
0001
0000
1000
0000
0001
0000
0100
0000
0010
0000
1000
0100
0001
0000
0010
0000
,  // measure 26
0100
0010
0001
1000
0001
0100
0010
0001
,  // measure 27
1000
0000
0001
0000
0100
0000
0010
0000
0001
1000
0001
0100
1000
0000
0100
0001
,  // measure 28
0010
0010
0001
1000
0001
0100
1000
0001
,  // measure 29
1000
0000
0001
0000
0100
0000
0010
0000
0001
0000
0100
0010
0001
1000
0001
0100
,  // measure 30
1000
0100
0010
0001
1000
0001
0100
0100
,  // measure 31
0010
0001
0100
0010
0001
0100
0001
1000
,  // measure 32
0100
0010
0100
0001
1000
0001
0010
0100
,  // measure 33
0001
0000
1000
0000
0001
0000
0010
0000
0100
0000
0001
0000
0100
0010
0001
0100
,  // measure 34
0010
0010
0001
0100
1000
0000
0001
0100
,  // measure 35
0001
0000
0000
0000
0100
0000
0010
0000
0001
0100
0001
0100
1000
0000
0100
0000
,  // measure 36
0001
0000
0001
0100
1000
0000
0010
0001
,  // measure 37
0100
0000
0000
0000
0100
0000
0010
0000
0001
1000
0001
0100
0010
0000
0001
1000
,  // measure 38
0100
0010
0001
0100
1000
0000
0001
0100
,  // measure 39
1000
0000
0000
0000
0100
0000
0010
0000
0001
1000
0001
0100
0001
0000
0100
0000
,  // measure 40
1000
0000
0001
0100
1000
0010
0001
0100
,  // measure 41
1000
0001
0100
0010
1000
0100
0001
0010
,  // measure 42
0200
0010
0000
0010
,  // measure 43
0000
0000
0000
0000
0010
0000
0000
0000
0300
0000
0000
0000
0100
0001
1000
0001
,  // measure 44
0010
0001
0100
0010
1000
0001
0100
0000
,  // measure 45
0100
0010
0001
1000
0001
0100
1000
0100
,  // measure 46
0010
0000
0001
0100
0001
0100
1000
0000
,  // measure 47
0100
0000
0010
0001
1000
0001
0100
0000
,  // measure 48
1000
0100
0001
0100
0001
1000
0100
0010
,  // measure 49
0100
0001
0100
0000
0010
0000
0001
0000
1000
0000
0001
0000
0100
0000
0010
0000
,  // measure 50
0001
0100
0001
0100
0010
0001
1000
0001
,  // measure 51
0100
0010
0001
1000
0001
0100
0001
0100
,  // measure 52
1000
0100
1000
0001
,  // measure 53
0100
0000
0010
0000
0001
1000
0001
0100
,  // measure 54
1000
0000
0001
0100
1000
0000
0001
0000
,  // measure 55
0100
0000
0010
0000
0001
1000
0001
0100
,  // measure 56
1000
0100
1000
0001
,  // measure 57
0100
0000
0010
0000
0001
0100
0001
0100
,  // measure 58
1000
0000
0010
0000
0001
0100
0001
0100
,  // measure 59
1000
0000
0000
0000
0100
0000
0010
0000
0001
0100
0010
0001
0100
0001
0100
0001
,  // measure 60
0010
0010
0001
0100
1000
0000
0100
0001
,  // measure 61
0010
0000
0000
0000
0100
0000
0010
0000
0001
0100
0001
0100
1000
0010
0100
0001
,  // measure 62
1000
0000
0100
0001
0010
0000
0100
0001
,  // measure 63
1000
0000
0000
0000
0100
0000
0010
0000
1000
0100
0001
0100
0001
0000
0010
0000
,  // measure 64
0100
0010
0001
0100
0001
0000
0100
1000
,  // measure 65
0001
0000
0000
0000
0100
0000
0010
0000
0001
0100
0001
0100
1000
0000
0010
0100
,  // measure 66
0001
0000
0100
0010
0001
1000
0001
0100
,  // measure 67
1000
0100
0010
0001
1000
0001
0100
0010
,  // measure 68
0100
0001
1000
0100
0001
0000
0010
0000
0001
0000
0000
0000
0010
0000
0001
0000
,  // measure 69
1000
0000
0000
0000
0100
0000
0010
0000
0001
1000
0001
0100
1000
0000
0100
0000
,  // measure 70
0001
0000
0010
0100
0001
0000
1000
0100
,  // measure 71
0001
0000
0000
0000
0010
0000
0100
0000
0001
1000
0100
0001
0100
0000
0010
0100
,  // measure 72
0001
0000
0001
0100
1000
0000
0010
0001
,  // measure 73
0100
0000
0000
0000
0100
0000
0010
0000
0001
0100
0001
0100
1000
0001
0010
0100
,  // measure 74
0001
0000
0100
0010
0001
1000
0001
0100
,  // measure 75
1000
0001
1000
0001
0100
0010
0100
0001
,  // measure 76
0100
0000
0000
0001
0010
0000
0100
0000
0001
0000
1000
0000
0001
0000
0100
0000
,  // measure 77
0010
0000
0000
0100
0001
0000
0010
0000
0100
0001
1000
0001
0010
0100
0001
0100
,  // measure 78
0001
0000
0000
1000
0100
0000
0000
0000
0000
0010
0000
0100
0000
0001
0000
0000
,  // measure 79
0000
0000
1000
0000
0100
0000
0000
0000
0010
0001
0100
0001
1000
0001
0010
0100
;
