#TITLE:hot shit;
#SUBTITLE:;
#ARTIST:Cil;
#TITLETRANSLIT:;
#SUBTITLETRANSLIT:;
#ARTISTTRANSLIT:;
#GENRE:;
#CREDIT:;
#BANNER:;
#BACKGROUND:;
#LYRICSPATH:;
#CDTITLE:;
#MUSIC:Cil - hot shit (Official Music Video).ogg;
#OFFSET:0.000000;
#SAMPLESTART:100.059883;
#SAMPLELENGTH:12.000000;
#SELECTABLE:YES;
#BPMS:0.000000=118.000000
;
#STOPS:0.000000=0.250000
;
#BGCHANGES:0.000=Cil - hot shit (Official Music Video).mp4=1.000=0=0=1=====,
99999=-nosongbg-=1.000=0=0=0 // don't automatically add -songbackground-
;
#KEYSOUNDS:;
#ATTACKS:;

//---------------dance-single - ----------------
#NOTES:
     dance-single:
     :
     Hard:
     11:
     0.515343,0.550213,0.711318,0.056454,0.093149,639.000000,513.000000,126.000000,10.000000,0.000000,0.000000,0.515343,0.550213,0.711318,0.056454,0.093149,639.000000,513.000000,126.000000,10.000000,0.000000,0.000000:
// measure 0
0000
0000
0000
0000
,  // measure 1
0000
0000
0000
0000
,  // measure 2
0000
0000
0000
0000
,  // measure 3
0000
0000
0000
0000
0000
0100
0010
0001
,  // measure 4
0110
0000
0011
0000
0011
0100
0001
1000
,  // measure 5
0001
0100
0010
0001
1000
0001
0100
0010
,  // measure 6
1100
0202
0000
0000
,  // measure 7
0000
0000
0000
0000
0303
0010
1000
0001
,  // measure 8
0110
0000
0110
0000
0011
0010
0000
0100
,  // measure 9
0010
0100
0001
0100
0010
0001
1000
0001
,  // measure 10
0110
0202
0000
0000
,  // measure 11
0000
0000
0000
0303
,  // measure 12
0100
0000
0010
0100
0000
0001
1000
0000
0100
0001
0000
0010
0100
0000
0001
0010
,  // measure 13
0000
0100
0001
0000
0010
0000
0000
0000
0100
0000
0000
0000
0001
0000
0000
0000
,  // measure 14
1000
0000
0100
0001
0000
0010
0100
0000
0001
0010
0000
0100
0001
0000
1000
0100
,  // measure 15
0000
0001
0010
0000
0100
0000
0001
0000
0010
0000
0100
0000
0001
0000
0000
0000
,  // measure 16
1000
0000
0100
0001
0000
0010
0100
0000
0001
0010
0000
0000
0000
0000
0000
0000
,  // measure 17
0010
0000
0010
0001
0000
0100
0010
0000
0001
0010
0000
0000
0000
0000
0000
0000
,  // measure 18
0110
0000
0010
0001
1100
0000
0110
0000
,  // measure 19
0202
0000
0000
0000
0303
0010
0100
1000
,  // measure 20
0011
0000
0101
0000
0110
0110
0000
0110
,  // measure 21
0000
1001
0001
1000
0100
0000
0100
0010
,  // measure 22
0001
0100
0001
0100
0010
0001
1000
0001
,  // measure 23
0100
0010
0001
0100
1000
0000
0100
0001
,  // measure 24
0110
0000
1100
0000
0101
0101
0000
0110
,  // measure 25
0000
1001
0010
0100
0001
0000
0010
0100
,  // measure 26
0001
0100
0001
0100
0010
0001
1000
0001
,  // measure 27
0100
0010
0001
0100
1000
0000
0100
0000
,  // measure 28
0110
0000
0001
1000
1001
0000
1000
0100
,  // measure 29
0000
0001
0010
0100
0001
1000
0100
0000
,  // measure 30
0101
0000
0010
0100
0110
0000
1000
0001
,  // measure 31
0000
1000
0100
0001
0011
0101
0011
0000
,  // measure 32
0110
0000
0110
0000
1001
0101
0000
0202
,  // measure 33
0000
0000
0000
0303
0000
0101
0110
0000
,  // measure 34
1100
0000
0101
0000
0110
0110
0000
1001
,  // measure 35
0000
0011
0100
0010
0011
0101
1001
0000
,  // measure 36
0010
0000
0000
0000
0000
0000
0010
0000
0000
0001
0000
0000
0010
0000
0000
0000
0000
0000
0010
0000
0000
0001
0000
0000
0010
0000
0000
0000
0000
0000
0100
0000
0000
0000
0000
0000
0001
0000
0000
0010
0000
0000
0000
0000
1000
0000
0000
0000
,  // measure 37
0000
0000
0001
0000
0000
0000
0000
0000
0000
0000
0000
0000
0000
0000
0000
0001
0000
0000
1000
0000
0000
0001
0000
0000
,  // measure 38
0100
0010
0001
0100
1000
0000
0001
0100
,  // measure 39
0001
0100
0001
0100
0010
0001
1000
0001
,  // measure 40
0100
0010
0001
0100
1000
0000
0100
0010
,  // measure 41
0100
0000
0000
0010
0001
0000
0000
0000
0000
0000
0001
0000
1000
0000
0001
0000
,  // measure 42
0100
0010
0001
0100
1000
0000
1000
0001
,  // measure 43
0100
0010
0001
0100
1000
0010
0001
0010
,  // measure 44
1100
0000
0110
0000
0101
0010
0100
0001
,  // measure 45
1100
0000
0101
0000
0110
0110
0000
0101
,  // measure 46
0000
1100
0001
0100
1000
0000
1000
0001
,  // measure 47
0100
0010
0001
0100
1000
0001
1000
0001
,  // measure 48
0100
0010
0001
0100
1000
0000
0100
0010
,  // measure 49
0110
0000
0101
0000
1100
1100
0000
0101
,  // measure 50
0000
0101
0010
0100
0001
0000
0001
0100
,  // measure 51
0001
0010
0001
0100
0010
0001
1000
0001
,  // measure 52
0100
0010
0001
0100
1000
0000
0100
0000
,  // measure 53
0101
0000
0010
0100
0101
0000
1000
0100
,  // measure 54
0000
0001
0100
0010
0001
0100
1000
0000
,  // measure 55
0101
0000
0010
0100
0101
0000
1000
0100
,  // measure 56
0000
0010
0100
0001
1001
0110
0101
0000
,  // measure 57
0110
0000
0101
0000
0110
0101
0000
0202
,  // measure 58
0000
0000
0000
0000
0303
0110
1100
0000
,  // measure 59
0101
0000
0110
0000
1001
1001
0000
1100
,  // measure 60
0000
0101
0100
0001
0110
0101
1100
0000
,  // measure 61
0010
0000
0001
0010
0100
0000
1000
0100
0001
0000
0010
0100
0001
0000
0000
0000
,  // measure 62
1000
0001
0100
0010
0001
0100
1000
0000
,  // measure 63
0100
0000
0010
0001
0100
0000
1000
0001
0100
0000
0010
0001
0100
0000
0000
0000
,  // measure 64
1000
0010
0001
0100
0010
0001
0100
1000
,  // measure 65
0100
0000
0010
0001
0100
0000
0010
0001
0100
0000
0010
0001
1000
0000
0000
0000
,  // measure 66
0100
0010
0001
0100
0001
0100
1000
0000
,  // measure 67
0110
0010
0100
0011
1000
0001
0100
0010
,  // measure 68
1100
0000
0101
0000
1001
0010
0100
0001
,  // measure 69
1001
0000
0110
0000
0101
0101
0010
1100
,  // measure 70
0010
0110
0001
1000
0100
0000
0001
1000
,  // measure 71
0001
0100
0010
0001
0100
1000
0100
0010
,  // measure 72
0001
1000
0001
0100
0010
0000
1000
0100
,  // measure 73
0011
0000
0110
0000
0101
0101
1000
0101
,  // measure 74
0010
0110
0001
0100
1000
0000
1000
0001
,  // measure 75
0100
0010
0001
1000
0001
0100
0010
1000
,  // measure 76
0001
0100
0001
0100
1000
0000
0100
0000
,  // measure 77
0110
0000
0100
0001
1100
0000
0001
0100
,  // measure 78
0010
0100
0001
1000
0010
0001
1000
0000
,  // measure 79
0110
0000
0100
0001
1100
0000
0010
0100
,  // measure 80
0001
0010
0100
0001
1010
0101
0101
0000
,  // measure 81
0110
0000
0101
0000
0101
0110
0100
0110
,  // measure 82
0001
0000
0100
0000
0010
1001
0101
0000
,  // measure 83
0011
0000
0101
0000
1001
1001
0000
0101
,  // measure 84
0000
0010
0100
0001
1100
0101
0110
0000
;
