#TITLE:heartbreak;
#SUBTITLE:;
#ARTIST:CVLTE;
#TITLETRANSLIT:;
#SUBTITLETRANSLIT:;
#ARTISTTRANSLIT:;
#GENRE:;
#CREDIT:;
#BANNER:;
#BACKGROUND:;
#LYRICSPATH:;
#CDTITLE:;
#MUSIC:CVLTE - heartbreak. (Official Music Video).mp3;
#OFFSET:0.000000;
#SAMPLESTART:100.059883;
#SAMPLELENGTH:12.000000;
#SELECTABLE:YES;
#BPMS:0.000000=150.000000
;
#STOPS:0.000000=0.300000,
174.000000=0.800000,
204.000000=0.800000
;
#BGCHANGES:0.000=CVLTE - heartbreak. (Official Music Video).mp4=1.000=0=0=1=====,
99999=-nosongbg-=1.000=0=0=0 // don't automatically add -songbackground-
;
#KEYSOUNDS:;
#ATTACKS:;

//---------------dance-single - ----------------
#NOTES:
     dance-single:
     :
     Hard:
     13:
     0.421218,0.992351,0.092527,0.067853,0.141875,478.000000,463.000000,15.000000,11.000000,0.000000,0.000000,0.421218,0.992351,0.092527,0.067853,0.141875,478.000000,463.000000,15.000000,11.000000,0.000000,0.000000:
// measure 0
0000
0000
0000
0000
,  // measure 1
0000
0000
0000
0000
,  // measure 2
0000
0000
0000
0000
0001
1000
0001
0100
,  // measure 3
1000
0000
0000
0000
0010
0000
0100
0000
0001
0000
0000
1000
0100
0000
0000
0000
,  // measure 4
0000
0000
0100
0010
,  // measure 5
0000
0000
1000
0100
0001
0000
0000
0000
,  // measure 6
0000
0000
0001
0100
0010
0000
0001
1000
,  // measure 7
0001
0100
0010
0001
0100
0000
1000
0000
,  // measure 8
0001
0100
1000
0000
0010
0001
0100
0000
,  // measure 9
0100
0010
0001
1000
0011
0100
1000
0000
,  // measure 10
0101
1100
0110
0110
,  // measure 11
0100
0010
0001
1000
0001
0100
1000
0000
,  // measure 12
0010
0000
0100
0001
1000
0001
0010
0000
,  // measure 13
0100
0010
0001
1000
0001
0100
1000
0000
,  // measure 14
0100
0010
0011
1000
0001
0100
1000
0000
,  // measure 15
0100
0001
0100
0010
1001
0010
0001
0100
,  // measure 16
1000
0010
0100
0001
1000
0000
0001
0010
,  // measure 17
0100
0001
1000
0001
0010
0100
0001
0000
,  // measure 18
1000
0100
0001
0100
0001
1000
0001
0010
,  // measure 19
0100
0001
1000
0001
0010
0100
0001
1000
,  // measure 20
0001
0010
0100
0001
1000
0001
0010
0000
,  // measure 21
0100
0000
0020
0000
0030
0000
0010
0001
,  // measure 22
1000
0001
0100
0010
0001
1000
0001
0100
,  // measure 23
0010
0000
0000
0001
1000
0000
0000
0000
0000
0000
0000
0000
0001
0000
0000
0000
,  // measure 24
1000
0100
0010
0100
,  // measure 25
0000
0001
0010
0100
,  // measure 26
0001
1000
0100
0010
,  // measure 27
0000
0010
0100
0001
,  // measure 28
1000
0001
0010
0200
,  // measure 29
0000
0000
0300
0000
0000
0100
0000
0010
,  // measure 30
0000
0001
0000
0000
0000
0100
0000
0010
,  // measure 31
0000
0200
0000
0000
0300
0000
0001
0000
,  // measure 32
1000
0100
0001
0010
,  // measure 33
0000
0100
0010
0001
,  // measure 34
0100
0001
1000
0100
,  // measure 35
0000
0010
0100
0001
,  // measure 36
1000
0001
0010
0202
,  // measure 37
0000
0000
0000
0000
0303
1000
0100
0001
,  // measure 38
0000
0100
0000
0000
0000
0001
0100
1000
,  // measure 39
0000
0000
0100
0001
1000
0001
0010
0100
0001
1000
0001
0010
0100
0001
0010
0000
,  // measure 40
0000
0000
0000
0000
,  // measure 41
0000
0000
0000
0000
,  // measure 42
0000
0000
0000
0000
,  // measure 43
0000
0000
0000
0000
,  // measure 44
0100
0000
0010
0000
0000
0000
0001
0100
,  // measure 45
1000
0000
0100
0000
0000
0000
0010
0001
,  // measure 46
1000
0001
0100
0001
0100
0010
1000
0100
,  // measure 47
0001
0000
2000
0000
3000
0000
0100
0001
,  // measure 48
0010
0100
0001
1000
0001
0010
0200
0000
,  // measure 49
0300
0001
1000
0001
0100
0000
0010
0001
,  // measure 50
0100
0010
0001
1000
0001
0100
1000
0000
,  // measure 51
0000
0000
1000
0000
0100
0001
0010
0000
,  // measure 52
0001
1000
0001
0100
0011
0100
1000
0000
,  // measure 53
0101
0101
0110
1001
,  // measure 54
0100
0010
0001
1000
0001
0100
1000
0000
,  // measure 55
0001
0000
0100
0010
0001
0100
1000
0000
,  // measure 56
0100
0010
0001
1000
0001
0100
1000
0000
,  // measure 57
0010
0100
0101
1000
0100
0001
0010
0000
,  // measure 58
0010
0001
1000
0001
0100
0010
0001
1000
0001
0100
0001
0100
1000
0000
0000
0000
,  // measure 59
0010
0001
1000
0100
,  // measure 60
0000
0100
0010
0001
,  // measure 61
1000
0001
0100
1000
,  // measure 62
0000
1000
0001
0100
,  // measure 63
0010
0001
1000
0200
,  // measure 64
0000
0000
0300
0000
0000
0001
0000
0100
,  // measure 65
0000
1000
0000
0000
0000
0100
0000
0010
,  // measure 66
0000
0001
0000
0000
0000
0000
0001
0000
,  // measure 67
1000
0001
0100
1000
,  // measure 68
0000
0010
0001
0100
,  // measure 69
1000
0001
0100
0010
,  // measure 70
0001
0100
1000
0001
,  // measure 71
0100
1000
0001
0200
,  // measure 72
0000
0000
0000
0000
0300
0001
0100
0010
,  // measure 73
0000
0001
0100
1000
0000
0001
0100
0010
,  // measure 74
0000
0001
1000
0001
0000
0100
0000
0000
,  // measure 75
0100
0010
0001
1000
,  // measure 76
0001
0100
0010
0001
,  // measure 77
0000
0000
0000
0000
0000
0000
0100
0001
,  // measure 78
1000
0001
0010
0100
0001
1000
0001
0000
,  // measure 79
0001
0100
0010
0001
,  // measure 80
1000
0001
0100
0010
,  // measure 81
0001
0100
0010
0001
0100
0001
0100
0010
0001
1000
0001
0100
0010
0001
1000
0001
,  // measure 82
0100
0010
0001
1000
0001
0100
0010
0001
1000
0001
0100
0010
0001
1000
0001
0100
,  // measure 83
0000
0000
2002
0000
,  // measure 84
0000
0000
0000
0000
,  // measure 85
0000
0000
0000
0000
,  // measure 86
0000
0000
0000
3003
,  // measure 87
1000
0100
0001
0010
,  // measure 88
1000
0001
0100
0010
,  // measure 89
0100
0010
0001
1000
0001
0100
0010
0001
1000
0001
0100
0010
0001
0100
0010
0001
,  // measure 90
0100
0010
0001
1000
0001
0100
0010
0001
1000
0001
0100
0010
0001
1000
0001
0100
,  // measure 91
1000
0000
0000
0000
,  // measure 92
0000
0000
0000
0000
,  // measure 93
0000
0000
0000
0000
0000
0001
1000
0001
,  // measure 94
0100
0010
0001
1000
0001
0100
1000
0000
,  // measure 95
1000
0001
0100
0010
,  // measure 96
0100
0010
0000
0000
,  // measure 97
1000
0000
0001
0000
;
