#VERSION:0.83;
#TITLE:good nights;
#SUBTITLE:;
#ARTIST:Wheathen & Mascolo;
#TITLETRANSLIT:;
#SUBTITLETRANSLIT:;
#ARTISTTRANSLIT:;
#GENRE:;
#ORIGIN:;
#CREDIT:;
#BANNER:;
#BACKGROUND:;
#PREVIEWVID:;
#JACKET:;
#CDIMAGE:;
#DISCIMAGE:;
#LYRICSPATH:;
#CDTITLE:;
#MUSIC:Whethan - Good Nights.mp3;
#OFFSET:0.000000;
#SAMPLESTART:100.059883;
#SAMPLELENGTH:12.000000;
#SELECTABLE:YES;
#BPMS:0.000=101.000;
#STOPS:0.000=2.100;
#DELAYS:;
#WARPS:;
#TIMESIGNATURES:0.000=4=4;
#TICKCOUNTS:0.000=4;
#COMBOS:0.000=1;
#SPEEDS:0.000=1.000=0.000=0;
#SCROLLS:0.000=1.000;
#FAKES:;
#LABELS:0.000=Song Start;
#BGCHANGES:;
#KEYSOUNDS:;
#ATTACKS:
;

//---------------dance-single - ----------------
#NOTEDATA:;
#CHARTNAME:;
#STEPSTYPE:dance-single;
#DESCRIPTION:;
#CHARTSTYLE:;
#DIFFICULTY:Hard;
#METER:13;
#RADARVALUES:0.493086,0.610970,0.006034,0.018103,0.573256,572.000000,571.000000,1.000000,3.000000,0.000000,0.000000,0.000000,0.000000,0.000000,0.493086,0.610970,0.006034,0.018103,0.573256,572.000000,571.000000,1.000000,3.000000,0.000000,0.000000,0.000000,0.000000,0.000000;
#CREDIT:;
#NOTES:
// measure 0
0000
0000
0000
0000
,  // measure 1
0000
0000
0000
0000
,  // measure 2
1000
0000
0000
0010
0000
0000
0100
0000
0000
0000
0000
0000
0000
0000
0000
0001
,  // measure 3
0100
0000
0000
0010
0000
0000
0100
0000
0000
0000
0000
0000
0000
0000
0000
0000
,  // measure 4
0000
0000
0100
0000
1000
0000
0001
0100
0010
0000
0001
0000
0100
0000
1000
0000
,  // measure 5
0100
0001
1000
0000
0101
0000
0010
0001
0010
0000
0001
0000
1000
0000
0100
0000
,  // measure 6
0100
0000
0010
0001
0000
0000
0100
0000
0000
0010
0000
0000
0100
0000
0000
0001
,  // measure 7
1000
0000
0000
0001
0000
0000
0100
0000
0000
0100
0010
0000
0001
1000
0000
0001
,  // measure 8
0010
0000
0000
0000
0100
0000
0000
0000
0010
0000
0000
0000
0001
0100
0000
1000
,  // measure 9
0000
0100
0001
0000
0000
1000
0000
0000
0000
0000
1000
0000
0100
0000
0001
0000
,  // measure 10
0010
0000
0010
0000
0100
0000
0001
0000
0100
0000
0010
0000
0100
0001
0000
1000
,  // measure 11
0000
0000
0000
0000
0000
0020
0000
0000
0000
0000
0030
0000
1000
0000
0100
0002
,  // measure 12
0000
0000
0000
0000
1000
0000
0000
0000
1000
0000
0003
0000
1000
0100
0000
0001
,  // measure 13
0000
0000
0100
0000
0000
0010
0000
0000
0100
0000
0000
0000
0001
0000
0100
0000
,  // measure 14
0010
0000
0001
0000
1000
0000
0001
0000
0100
0000
0010
0000
1000
0100
0000
0001
,  // measure 15
0000
0000
0100
0100
0100
0000
0000
0000
,  // measure 16
0010
0000
0000
1000
0100
0000
0001
0000
0010
0000
0100
0000
0001
0000
0000
0000
,  // measure 17
0010
0000
0000
0001
0100
0000
0010
0000
0001
0000
0100
0000
1000
0100
0001
0000
,  // measure 18
0001
0100
0010
0000
0001
0100
1000
0000
0001
0100
0010
0000
0001
0100
0010
0000
,  // measure 19
0010
0100
0001
0100
0010
0001
1000
0001
0100
0010
0001
0100
1000
0000
0000
0100
,  // measure 20
0001
1000
0100
0001
0010
0000
0100
0001
1000
0100
0001
0000
0100
0001
0010
0100
,  // measure 21
1000
0100
0010
0001
0100
0000
0001
0100
0010
0001
0100
1000
0100
0010
0100
0010
,  // measure 22
0001
0000
0000
1000
0000
0000
0100
0000
0000
0000
0100
0000
1000
0000
0000
0000
,  // measure 23
0010
0000
0000
0001
0000
0000
0100
0000
0000
0000
0010
0000
0100
0000
0000
0100
,  // measure 24
1000
0010
0001
0100
0010
0000
0001
0100
0010
0001
0100
0000
1000
0100
0001
0010
,  // measure 25
0100
0100
0001
0100
0010
0000
0001
0100
0010
0001
1000
0100
0010
0001
1000
0000
,  // measure 26
0100
0000
0000
0010
0000
0000
0001
0000
0000
0000
0100
0000
1000
0000
0000
0010
,  // measure 27
0001
0000
0100
0000
1000
0100
0001
0100
,  // measure 28
0010
0000
0000
0100
0000
0000
1000
0000
0000
0000
0100
0010
0001
0010
0001
0000
,  // measure 29
0010
0000
0000
0100
0000
0000
0010
0000
0000
0000
0001
0100
1000
0100
0001
0000
,  // measure 30
1000
0000
0100
0001
0100
0000
0010
0100
0001
0000
1000
0100
0001
0010
0100
0000
,  // measure 31
1000
0000
0100
0001
0010
0000
0100
0000
0010
0000
0100
0000
0001
0000
0000
0000
,  // measure 32
0001
0000
0100
0000
0010
0000
0001
0100
1000
0000
0001
0000
0100
0000
0010
0000
,  // measure 33
0100
0001
1000
0000
0100
0000
0001
0010
0100
0000
0001
0000
1000
0000
0010
0000
,  // measure 34
0100
0000
0000
0010
0000
0000
0001
0000
0000
0000
1000
0000
0100
0000
0000
0001
,  // measure 35
0010
0000
0000
1000
0000
0000
0100
0000
0000
0000
0000
0000
0000
0000
0000
0000
,  // measure 36
1000
0000
0100
0000
0001
0000
0010
0100
0001
1000
0100
0000
0001
0000
0100
0000
,  // measure 37
1000
0000
0000
0000
0010
0000
0000
0000
0100
0000
0000
0000
0001
0000
0000
0000
0000
0000
0001
0000
0000
0100
0000
0000
0010
0000
0000
0000
0000
0000
0001
0000
0000
0000
0000
0000
0100
0000
0000
0000
0000
0000
1000
0000
0000
0000
0000
0000
,  // measure 38
0001
0000
0000
0100
0000
0000
0000
0010
0000
1000
0000
0000
0100
0000
0000
0001
,  // measure 39
0100
0000
0000
0010
0000
0000
0001
0000
0000
0000
0000
1000
0100
0001
0000
0010
,  // measure 40
0100
0000
0000
0001
0000
0000
1000
0000
0000
0000
0001
0000
0100
0010
0000
0100
,  // measure 41
0010
0000
0010
0001
0000
0000
1000
0000
0000
0000
0010
0000
0001
0000
0100
0000
,  // measure 42
1000
0000
0010
0000
0100
0000
0010
0000
0001
0000
0100
0000
1000
0001
0000
0010
,  // measure 43
0100
0000
0000
0010
0000
0000
0001
0000
0000
0000
1000
0000
0100
0000
0010
0200
,  // measure 44
0000
0000
0000
0000
0000
0000
0000
0000
0000
0000
0300
0000
1000
0100
0000
0001
,  // measure 45
0010
0000
0100
0000
0000
0001
0000
0000
1000
0000
0000
0000
0001
0000
0100
0000
,  // measure 46
0010
0000
0001
0000
1000
0000
0001
0000
0100
0000
0010
0000
1000
0100
0000
0001
,  // measure 47
0000
0000
0010
0010
0010
0000
0000
0000
,  // measure 48
1000
0100
0000
0001
0010
0000
0000
0001
0100
0000
1000
0000
0001
0000
0000
0000
,  // measure 49
0010
0100
0000
0001
0100
0000
0010
0000
0001
0000
0100
0000
1000
0000
0000
0000
,  // measure 50
0100
0000
0010
0100
0001
0100
0010
0000
0100
0001
0100
0000
0100
0010
0001
0000
,  // measure 51
0010
0100
0001
0100
0010
0001
1000
0001
0100
0010
0001
0100
1000
0000
0000
0100
,  // measure 52
0001
1000
0100
0001
0010
0000
0100
0010
0001
0100
1000
0000
0100
0010
0001
0100
,  // measure 53
1000
0010
0001
1000
0100
0000
0010
0100
0001
1000
0100
0000
0100
0010
0001
0100
,  // measure 54
1000
0000
0000
0100
0000
0000
0010
0000
0000
0000
0100
0000
0010
0000
0000
0100
,  // measure 55
1000
0000
0000
0001
0000
0000
0010
0000
0000
0000
0100
0000
0001
0000
0010
0001
,  // measure 56
0100
0010
0001
0100
1000
0000
0001
0100
0010
0001
0100
1000
0100
0001
0010
0000
,  // measure 57
0100
0010
0001
0100
1000
0000
0100
0010
0001
0100
1000
0100
0001
1000
0100
0001
,  // measure 58
0010
0000
0000
0100
0000
0000
0001
0000
0000
0000
1000
0000
0100
0001
0000
1000
,  // measure 59
0100
0000
0000
0001
0000
0000
0100
0000
0000
0000
0100
0000
0010
0000
0100
0000
,  // measure 60
0010
0000
0100
0000
0001
1000
0010
0001
0100
0000
0010
0000
0001
0010
0100
0100
,  // measure 61
1000
0000
0001
0010
0100
0010
0001
0100
1000
0000
0100
0001
1000
0100
0001
0010
,  // measure 62
0100
0001
1000
0000
0100
0001
0100
0000
0010
0100
0001
0000
1000
0100
0001
0000
,  // measure 63
0010
1000
0001
0100
0010
0001
1000
0100
,  // measure 64
1000
0000
0100
0000
0001
0010
0001
0100
1000
0000
0100
0000
0001
0010
0100
0001
,  // measure 65
1000
0000
0100
0001
1000
0001
0010
0100
0001
0000
0100
0010
0100
0010
0001
0100
,  // measure 66
1000
0010
0100
0000
0001
1000
0100
0000
0001
0010
0100
0000
0001
1000
0100
0000
,  // measure 67
0100
0010
0001
0100
1000
0000
0000
0000
;

//---------------dance-single - ----------------
#NOTEDATA:;
#CHARTNAME:;
#STEPSTYPE:dance-single;
#DESCRIPTION:;
#CHARTSTYLE:;
#DIFFICULTY:Medium;
#METER:8;
#RADARVALUES:0.262060,0.366582,0.012069,0.006034,0.075428,304.000000,302.000000,2.000000,1.000000,0.000000,0.000000,0.000000,0.000000,0.000000,0.262060,0.366582,0.012069,0.006034,0.075428,304.000000,302.000000,2.000000,1.000000,0.000000,0.000000,0.000000,0.000000,0.000000;
#CREDIT:;
#NOTES:
0000
0000
0000
0000
,
0000
0000
0000
0000
,
1000
0000
0000
0100
0000
0000
0001
0000
0000
0000
0000
0000
0000
0000
0000
1000
,
0100
0000
0000
0001
0000
0000
0100
0000
0000
0000
0000
0000
0000
0000
0000
0000
,
0100
0010
0001
0100
0010
0001
0100
1000
,
0010
0100
0101
0100
0010
0001
0100
1000
,
0001
0000
0000
0100
0000
0000
0010
0000
0000
0000
0000
0000
0000
0000
0100
0000
,
0010
0000
0000
0100
0000
0000
0010
0000
0000
0000
0000
0000
0000
0000
0000
0000
,
1000
0000
0000
0010
,
0001
1000
0001
0100
,
0010
0100
1000
0001
,
0020
0000
0030
0100
,
0000
0000
0000
1000
,
0100
0000
0010
0001
,
0100
0010
0001
0100
,
1000
0000
0000
0000
,
1000
0001
0100
0010
,
0001
1000
0001
0100
,
0100
0001
0010
0010
0001
0010
0100
0001
,
0010
0010
0001
0010
0100
0010
1000
0000
,
0100
0010
0001
1000
,
0100
0001
0100
0010
,
0001
0000
0000
0100
0000
0000
1000
0000
0000
0000
0000
0000
0000
0000
0000
1000
,
0100
0000
0000
0001
0000
0000
0010
0000
0000
0000
0000
0000
0000
0000
0000
0000
,
0100
0010
0001
0100
,
1000
0001
0100
0010
,
0001
0000
0000
0100
0000
0000
1000
0000
0000
0000
0000
0000
0000
0000
0000
0001
,
0010
0000
0000
0100
0000
0000
0010
0000
0000
0000
0100
0000
0100
0000
0100
0000
,
0010
0000
0000
0001
0000
0000
0100
0000
0000
0000
0000
0000
0100
0000
0000
0000
,
1000
0000
0000
0100
0000
0000
0010
0000
0000
0000
0000
0000
0100
0000
0000
0000
,
0010
0001
0100
1000
,
0000
0000
0000
0000
,
0100
0010
0001
0100
0001
1000
0001
0010
,
0100
0001
0100
0010
0001
1000
0001
0100
,
0010
0000
0000
0001
0000
0000
0100
0000
0000
0000
0000
0000
0000
0000
0000
0000
,
1000
0000
0000
0001
0000
0000
0100
0000
0000
0000
0000
0000
0000
0000
0000
0000
,
0100
0010
0001
0100
0100
0001
0010
1000
,
0001
0100
1000
0010
0001
0100
0100
0001
,
0010
0000
0000
0001
0000
0000
0000
0100
0000
0000
0000
0000
0000
0000
0000
0001
,
0100
0000
0000
1000
0000
0000
0100
0000
0000
0000
0000
0000
0000
0000
0000
0000
,
1000
0000
0000
0100
,
0010
0001
0100
1000
,
0010
0100
0001
1000
,
0100
0000
0000
0000
,
1000
0000
0000
0010
,
0100
0000
0110
0000
,
0001
1000
0001
0100
,
0010
0000
0100
0100
0100
0000
0000
0000
,
0001
0100
0010
0001
,
1000
0001
0100
0010
,
0100
0010
0001
0100
0001
0100
0010
0001
,
1000
0001
0100
0010
1000
0001
0100
0000
,
0010
0100
0001
1000
,
0001
1000
0001
0100
,
0010
0000
0000
1000
0000
0000
0100
0000
0000
0000
0000
0000
0000
0000
0000
1000
,
0100
0000
0000
0001
0000
0000
0100
0000
0000
0000
0000
0000
0000
0000
0000
0000
,
1000
0100
0010
0100
,
0001
1000
0001
0010
,
0100
0000
0000
0001
0000
0000
1000
0000
0000
0000
0000
0000
0000
0000
0000
0001
,
0100
0000
0000
0001
0000
0000
1000
0000
0000
0000
0000
0000
0000
0000
0100
0000
,
0001
1000
0001
0010
0100
0001
1000
0001
,
0010
0100
0001
1000
0001
0010
0100
0001
,
1000
0001
0010
0100
0001
1000
0001
0010
,
0100
0001
1000
0001
0010
0100
0001
1000
,
0001
0010
0001
1000
0001
0100
0010
0001
,
0100
0010
0001
1000
0001
0100
0010
0100
,
0010
0001
1000
0001
0100
0010
0001
1000
,
0001
0100
0010
0001
1000
0000
0000
0000
;

//---------------dance-single - ----------------
#NOTEDATA:;
#CHARTNAME:;
#STEPSTYPE:dance-single;
#DESCRIPTION:;
#CHARTSTYLE:;
#DIFFICULTY:Easy;
#METER:5;
#RADARVALUES:0.169822,0.285119,0.030171,0.000000,0.000000,197.000000,192.000000,5.000000,0.000000,0.000000,0.000000,0.000000,0.000000,0.000000,0.169822,0.285119,0.030171,0.000000,0.000000,197.000000,192.000000,5.000000,0.000000,0.000000,0.000000,0.000000,0.000000,0.000000;
#CREDIT:;
#NOTES:
0000
0000
0000
0000
,
0000
0000
0000
0000
,
0100
0000
0000
0000
,
0010
0000
0000
0000
,
1000
0100
0001
0010
,
0100
0001
1000
0001
,
0010
0000
0000
0000
,
1000
0000
0000
0000
,
0100
0000
0000
0000
,
0001
0010
0100
0001
,
1000
0001
0010
0100
,
0000
0000
0000
0000
,
0010
0000
0000
0000
,
0100
0000
1001
0000
,
0010
0100
0001
0010
,
0000
0000
0000
0000
,
1000
0000
0000
0000
,
0001
0000
0000
0000
,
0110
0000
1001
0000
,
0010
0100
0001
1000
,
0001
0100
0010
0000
0001
0100
1000
0010
,
0100
0001
1000
0000
0010
0001
0100
0000
,
1000
0000
0000
0000
,
0100
0000
0000
0000
,
0010
0100
0001
0000
1000
0100
0001
0010
,
0100
0001
1000
0000
0100
0001
0010
0000
,
0010
0000
0000
0000
,
0100
0000
0000
0000
,
1000
0000
0000
0000
,
0001
0000
0000
0000
,
0010
0000
0000
0000
,
0100
0000
0000
0000
,
1000
0001
0100
0010
,
0010
0100
0001
1000
,
0100
0000
0000
0000
,
0001
0000
0000
0000
,
1000
0100
0001
0010
,
0100
0001
1000
0001
,
0010
0000
0000
0000
,
1000
0000
0000
0000
,
0001
0000
0000
0000
,
0100
0001
1000
0100
,
0001
0010
0100
0001
,
1000
0000
0000
0000
,
0100
0000
0000
0000
,
0010
0000
0110
0000
,
0001
1000
0100
0001
,
0100
0000
0000
0000
,
0010
0000
0000
0000
,
0100
0000
0000
0000
,
1000
0000
1001
0000
,
0010
0001
0100
0010
,
0100
0001
0010
0000
0100
0001
1000
0001
,
0010
0100
0001
0000
1000
0100
0001
0000
,
0010
0000
0000
0000
,
0100
0000
0000
0000
,
1000
0100
0001
0010
0100
0000
0010
0100
,
0001
1000
0100
0000
0001
0010
0100
0000
,
0010
0000
0000
0000
,
0100
0000
0000
0000
,
1000
0100
0001
0000
0010
0100
0001
0000
,
1000
0100
0001
0000
0010
0100
0001
0000
,
1000
0100
0001
0000
0010
0100
0001
0000
,
1000
0100
0001
0000
0010
0100
0001
0000
,
1000
0100
0001
0000
0010
0100
0001
0000
,
0001
1000
0100
0000
0010
0100
0001
0000
,
0010
0100
0001
0000
1000
0100
0001
0000
,
0010
0001
0100
0000
1000
0000
0000
0000
;

//---------------dance-single - ----------------
#NOTEDATA:;
#CHARTNAME:;
#STEPSTYPE:dance-single;
#DESCRIPTION:;
#CHARTSTYLE:;
#DIFFICULTY:Beginner;
#METER:1;
#RADARVALUES:0.056895,0.060644,0.000000,0.000000,0.000000,66.000000,66.000000,0.000000,0.000000,0.000000,0.000000,0.000000,0.000000,0.000000,0.056895,0.060644,0.000000,0.000000,0.000000,66.000000,66.000000,0.000000,0.000000,0.000000,0.000000,0.000000,0.000000,0.000000;
#CREDIT:;
#NOTES:
0000
0000
0000
0000
,
0000
0000
0000
0000
,
0100
0000
0000
0000
,
0010
0000
0000
0000
,
1000
0000
0000
0000
,
0001
0000
0000
0000
,
0010
0000
0000
0000
,
0100
0000
0000
0000
,
0001
0000
0000
0000
,
1000
0000
0000
0000
,
0100
0000
0000
0000
,
0001
0000
0000
0000
,
0010
0000
0000
0000
,
0100
0000
0000
0000
,
0001
0000
0000
0000
,
1000
0000
0000
0000
,
0100
0000
0000
0000
,
0001
0000
0000
0000
,
0010
0000
0000
0000
,
0100
0000
0000
0000
,
0001
0000
0000
0000
,
1000
0000
0000
0000
,
0100
0000
0000
0000
,
0001
0000
0000
0000
,
0010
0000
0000
0000
,
0100
0000
0000
0000
,
0010
0000
0000
0000
,
0100
0000
0000
0000
,
0001
0000
0000
0000
,
1000
0000
0000
0000
,
0100
0000
0000
0000
,
0001
0000
0000
0000
,
0010
0000
0000
0000
,
0100
0000
0000
0000
,
0001
0000
0000
0000
,
0010
0000
0000
0000
,
0100
0000
0000
0000
,
1000
0000
0000
0000
,
0001
0000
0000
0000
,
0010
0000
0000
0000
,
0100
0000
0000
0000
,
0001
0000
0000
0000
,
1000
0000
0000
0000
,
0100
0000
0000
0000
,
0001
0000
0000
0000
,
0010
0000
0000
0000
,
0100
0000
0000
0000
,
0001
0000
0000
0000
,
1000
0000
0000
0000
,
0100
0000
0000
0000
,
0010
0000
0000
0000
,
0100
0000
0000
0000
,
0010
0000
0000
0000
,
0100
0000
0000
0000
,
0001
0000
0000
0000
,
0100
0000
0000
0000
,
0010
0000
0000
0000
,
0100
0000
0000
0000
,
0010
0000
0000
0000
,
0100
0000
0000
0000
,
0001
0000
0000
0000
,
0010
0000
0000
0000
,
0100
0000
0000
0000
,
1000
0000
0000
0000
,
0100
0000
0000
0000
,
0001
0000
0000
0000
,
0010
0000
0000
0000
,
0100
0000
0000
0000
;
