#TITLE:good luck babe!;
#SUBTITLE:;
#ARTIST:Unknown artist;
#TITLETRANSLIT:;
#SUBTITLETRANSLIT:;
#ARTISTTRANSLIT:;
#GENRE:;
#CREDIT:;
#BANNER:;
#BACKGROUND:;
#LYRICSPATH:;
#CDTITLE:;
#MUSIC:Chappell Roan - Good Luck, Babe! (Official Lyric Video).mp3;
#OFFSET:0.000000;
#SAMPLESTART:100.059883;
#SAMPLELENGTH:12.000000;
#SELECTABLE:YES;
#BPMS:0.000000=119.000000
,32.000000=117.000000
,60.000000=116.000000
,168.000000=117.000000
,204.000000=118.000000
,220.000000=116.000000
,312.000000=118.000000
,376.000000=103.000000
,384.000000=93.000000
,392.000000=83.000000
,396.000000=78.000000
,398.000000=73.000000
,400.000000=62.999996
,401.000000=43.000000
,402.000000=33.000000
;
#STOPS:0.000000=0.500000
;
#BGCHANGES:;
#KEYSOUNDS:;
#ATTACKS:;

//---------------dance-single - ----------------
#NOTES:
     dance-single:
     :
     Hard:
     11:
     0.408849,0.462490,0.018316,0.082424,0.139663,625.000000,621.000000,4.000000,18.000000,0.000000,0.000000,0.408849,0.462490,0.018316,0.082424,0.139663,625.000000,621.000000,4.000000,18.000000,0.000000,0.000000:
0000
0000
0000
0000
,
0000
0000
0000
0000
,
0010
0001
0100
0010
0001
1000
0001
0100
,
0010
0001
1000
0001
0100
0010
0001
1000
,
0001
0100
0010
0010
0001
0100
0100
0010
,
1000
0001
1000
0001
0100
0010
0001
0100
,
2000
0000
0000
0000
3000
0000
0100
0002
,
0000
0000
0000
0003
0000
0100
1000
0001
,
0010
0001
1000
0001
0100
0010
0001
0100
,
1000
0000
0001
0100
0000
0001
0010
0002
,
0000
0000
0000
0000
0003
0000
0100
0002
,
0000
0000
0000
0003
0000
0001
0100
1000
,
0001
1000
0001
0100
0010
0001
0100
1000
,
0010
0000
0001
0000
0100
0011
0100
0110
,
0010
0000
0000
0000
0100
0001
1000
0100
0001
0000
0010
0000
0100
0000
0000
0000
,
0000
0000
0000
0001
0010
0100
0001
1000
0001
0000
0010
0000
0100
0000
0000
0000
,
0000
0000
0000
0000
0100
0010
0001
0100
1000
0000
0100
0000
0010
0000
0001
0000
,
0010
0100
0000
0000
0001
0010
0000
0000
1000
0100
0000
0010
0000
0000
0100
0000
,
0010
0000
0100
0000
0001
0000
0100
0000
0001
0010
0000
0000
0100
0010
0000
0000
,
1000
0100
0000
0000
0010
0100
0000
0000
0001
0010
0000
0000
0000
0000
0100
0000
,
0001
1000
0001
0010
0100
0001
1000
0001
,
0010
0000
0100
0001
0000
0010
0000
0010
,
0001
0000
0100
0000
0001
0000
0100
0000
1000
0001
0000
0000
0010
0001
0000
0000
,
0010
0100
0000
0000
0001
1000
0000
0000
0100
0001
0000
0000
0000
0000
0010
0000
,
0100
0001
1000
0001
0010
0100
0001
1000
,
0001
0000
0010
0100
0000
0010
0001
1000
,
0000
0001
0010
0100
0000
0010
0001
0100
,
0000
1000
0010
0100
0000
0010
0001
0100
,
0001
1000
0001
0010
0100
0001
1000
0001
,
0010
0100
0001
1000
0001
0010
0100
0001
,
0000
1000
0100
0001
0000
0010
0100
1000
,
0000
0001
0100
0010
0000
0001
0100
0010
,
0001
0100
0010
0001
1000
0001
0100
0010
,
0001
1000
0001
0100
0010
0001
0100
1000
,
0200
0000
0000
0000
0000
0300
0010
0200
,
0000
0000
0000
0000
0000
0300
0001
1000
,
0000
0100
0001
0010
0100
0001
1000
0001
,
0010
0000
0100
0010
0000
0100
0020
0000
,
0200
0000
0330
2000
,
0002
0000
0000
3003
,
0002
0000
0000
0000
,
2000
0000
0000
0000
,
3003
0000
0000
0000
0100
0001
1000
0001
0010
0000
0100
0000
0001
0000
0000
0000
,
0000
0000
0000
0000
0100
0010
0001
0100
1000
0000
0010
0000
0001
0000
0000
0000
,
0000
0000
0000
0000
1000
0100
0001
0000
0010
0000
0100
0000
0001
0000
1000
0000
,
0001
0010
0000
0000
0100
0001
0000
0000
1000
0100
0000
0001
0000
0000
0010
0000
,
0100
0000
0100
0000
0010
0000
0001
0000
0100
0010
0000
0000
1000
0010
0000
0000
,
0001
0010
0000
0000
0010
0100
0000
0000
1000
0001
0000
0000
0000
0000
1000
0000
,
0100
0001
0010
0100
0001
1000
0001
0010
,
0100
0000
0001
0010
0000
0001
0000
1000
,
0100
0000
0001
0000
0010
0000
0100
0000
0001
0010
0000
0000
0100
0001
0000
0000
,
1000
0100
0000
0000
0010
0100
0000
0000
0001
0010
0000
0000
0000
0000
1000
0000
,
0010
0001
0100
0010
0100
0001
0100
0010
,
0001
0000
0001
0100
0000
0001
0100
1000
,
0000
0001
0100
1000
0000
0010
0100
0001
,
0000
1000
0100
0001
0000
0010
0100
0001
,
0100
0010
0100
0001
1000
0001
0010
0100
,
0001
1000
0001
0010
0100
0001
1000
0001
,
0000
0100
0010
0100
0000
0001
1000
0100
,
0000
0100
0010
0001
0000
1000
0100
0001
,
0010
0100
0001
1000
0001
0010
0100
0001
,
1000
0001
0010
0100
0001
1000
0001
0010
,
0220
0000
0000
0000
,
0000
0000
0000
0000
,
0000
0000
0000
0000
,
0000
0000
0000
0000
0330
0000
0001
0100
,
1000
0000
0100
0000
0001
0000
0010
0100
0000
0000
0001
0000
1000
0000
0100
0000
,
0001
0010
0100
0000
0010
0000
0001
0000
0000
0000
0010
0000
0001
0000
1000
0000
,
0000
0001
0100
0010
0000
1000
0001
0100
,
0010
0000
1000
0100
0000
0000
0001
0000
0000
0000
0010
0000
0001
0000
0100
0000
,
1000
0000
0100
0001
0000
0000
0000
0000
0000
0000
0100
0000
0010
0000
0001
0000
,
0100
0000
0000
0010
0000
0000
0001
0000
0000
0000
0001
0000
0100
0000
1000
0000
,
0010
0000
0000
0100
0000
0000
0001
0000
0000
0000
1000
0000
0000
0000
0100
0000
,
0001
0000
0000
0010
0000
0000
0100
0000
0000
0000
0001
0000
0100
0000
1000
0000
,
0010
0000
0000
0001
0000
0000
0010
0000
0000
0000
0000
0000
0000
0000
0001
0000
,
1000
0000
0000
0100
0000
0000
0001
0000
0000
0000
1000
0000
0100
0000
0001
0000
,
0100
0000
0000
0010
0000
0000
0010
0100
0000
0000
0001
0000
0000
0000
0000
0000
,
0010
0000
0100
2002
0000
0000
3003
0010
,
0100
0000
0001
0000
1000
0000
0001
0000
0010
0100
0000
0000
0001
1000
0000
0000
,
0100
0010
0000
0000
0010
0100
0000
0000
1000
0001
0000
0000
0000
0000
0001
0000
,
0100
0010
0001
0100
1000
0001
0010
0100
,
0100
0010
0001
0100
1000
0010
0001
0100
,
1000
0000
0010
0000
0001
0000
0100
0000
1000
0001
0000
0000
0010
0100
0000
0000
,
0001
0010
0000
0000
0100
0001
0000
0000
1000
0100
0000
0000
0000
0000
0010
0000
,
0100
0001
1000
0001
0010
0100
0001
1000
,
0001
0000
0100
0001
0000
0010
0100
0001
,
0000
1000
0100
0001
0000
0010
0100
0001
,
0000
1000
0100
0001
0000
0010
0100
0001
,
0010
0100
0010
0001
0100
0001
0100
0010
,
0001
1000
0001
0100
0010
0001
0100
0100
,
0000
0001
0100
1000
0000
0100
0010
0001
,
0000
0010
0100
0001
0000
1000
0100
0001
,
0010
0100
0001
1000
0001
0010
0100
0001
,
1000
0001
0010
0100
0001
1000
0001
0010
,
0100
0001
0100
0010
0001
1000
0001
0100
,
0010
0001
1000
0001
0100
0010
0001
0100
,
1000
0001
0100
0010
0001
1000
0001
0100
,
0010
0001
1000
0001
0100
0010
0001
0100
,
1000
0010
0001
1000
0001
0100
0010
0100
,
1000
0010
0001
0100
0010
0001
1000
0001
,
0200
0010
0020
0000
,
0330
0000
0000
0000
;

//---------------dance-single - ----------------
#NOTES:
     dance-single:
     :
     Medium:
     6:
     0.194939,0.323743,0.013737,0.137373,0.000000,298.000000,295.000000,3.000000,30.000000,0.000000,0.000000,0.194939,0.323743,0.013737,0.137373,0.000000,298.000000,295.000000,3.000000,30.000000,0.000000,0.000000:
0000
0000
0000
0000
,
0000
0000
0000
0000
,
1000
0000
0100
0000
0001
0100
0010
0001
,
1000
0000
0100
0000
0001
0010
0100
0001
,
1000
0000
0100
0000
0001
0100
0010
0001
,
1000
0100
0001
0010
,
0200
0000
0000
0301
,
2000
0000
0000
3100
,
0001
0010
0100
0001
,
1000
0001
0010
0100
,
0002
0000
0000
1003
,
0200
0000
0000
0310
,
0001
1000
0100
0001
,
0010
0100
0001
0000
,
0001
0000
0010
0100
0001
0100
1000
0000
,
0010
0000
0100
0010
0001
0100
1000
0000
,
0100
0000
0010
0001
0100
0100
1000
0100
,
0001
0010
0100
0001
,
1000
0100
0001
0010
,
0100
0001
1000
0000
,
0100
0001
0010
0100
,
0001
1000
0001
0100
,
0010
0001
1000
0001
,
0010
0100
0001
0000
,
1000
0100
0001
0010
,
0100
0001
1000
0001
,
0020
0000
0000
0130
,
0200
0000
0000
0301
,
0001
0010
0100
0001
,
1000
0001
0010
0100
,
0002
0000
0000
1003
,
2000
0000
0000
3100
,
0001
0010
0100
0001
,
1000
0001
0010
0100
,
0002
0000
0000
0003
,
0020
0000
0000
0030
,
0100
0000
0001
0000
,
1000
0100
0001
0100
,
0020
0000
0000
0000
,
0200
0000
0000
0330
,
2000
0000
0000
0000
,
0002
0000
0000
0000
,
3003
0000
0010
0001
0100
0010
0001
0000
,
1000
0000
0100
0001
0001
0100
0010
0000
,
0100
0000
0001
0010
1000
0001
0100
0000
,
0010
0001
0100
1000
,
0100
0010
0001
0010
,
0100
0001
1000
0000
,
0010
0100
0001
1000
,
0001
0010
0100
0001
,
0100
0001
0010
1000
,
0001
0010
0100
0000
,
0010
0100
0001
1000
,
0001
0010
0100
0001
,
2000
0000
0000
3100
,
0200
0000
0000
0310
,
0001
0010
0100
0001
,
1000
0001
0010
0100
,
0002
0000
0000
1003
,
2000
0000
0000
3100
,
0010
0100
0001
1000
,
0001
0010
0100
0001
,
2002
0000
0000
0000
,
0000
0000
0000
0000
,
0000
0000
0000
0000
,
0000
0000
0000
3003
,
0010
0000
0100
0001
0010
0000
0100
0001
,
1000
0100
0001
0100
0010
0000
0000
0000
,
0010
0000
0100
0000
,
0001
1000
0100
0000
,
0010
0000
0000
0000
,
0100
0000
0000
0000
,
0001
0000
0000
0000
,
1000
0000
0000
0000
,
0100
0000
0000
0000
,
0010
0000
0000
0000
,
0100
0000
0000
0000
,
0001
0000
2002
0000
,
0000
0000
0000
0000
,
0000
0000
0000
3003
,
0010
0100
0001
1000
,
0001
0010
0100
0010
,
2002
0000
0000
0000
,
0000
0000
0000
0000
,
0000
0000
0000
0000
,
0000
0000
0000
3003
,
0020
0000
0000
0130
,
0200
0000
0000
0301
,
0001
1000
0100
0001
,
0010
0100
0001
1000
,
2000
0000
0000
3100
,
0020
0000
0000
0130
,
0001
0100
0001
0010
,
0100
0001
1000
0001
,
0010
0100
0001
0100
,
0001
1000
0001
0010
,
0100
0001
1000
0001
,
0010
0100
0001
1000
,
0001
0010
0100
0001
,
1000
0001
0010
0100
,
0020
0100
0200
0000
,
0330
0000
0000
0000
;

//---------------dance-single - ----------------
#NOTES:
     dance-single:
     :
     Easy:
     3:
     0.159615,0.231245,0.013737,0.137373,0.000000,244.000000,241.000000,3.000000,30.000000,0.000000,0.000000,0.159615,0.231245,0.013737,0.137373,0.000000,244.000000,241.000000,3.000000,30.000000,0.000000,0.000000:
0000
0000
0000
0000
,
0000
0000
0000
0000
,
0100
0001
0010
0100
,
0001
1000
0001
0010
,
0100
0001
1000
0001
,
0010
0100
0001
1000
,
0002
0000
0000
0003
,
0020
0000
0000
0030
,
0100
0001
1000
0001
,
0010
0001
0100
0010
,
0200
0000
0000
0300
,
0002
0000
0000
0003
,
1000
0100
0001
0010
,
0100
0001
1000
0000
,
0000
0010
0100
0001
,
0000
1000
0100
0001
,
0000
0010
0100
0001
,
1000
0001
0010
0100
,
0001
0010
0100
0001
,
1000
0001
0010
0000
,
0100
0001
0100
0010
,
0010
0100
0001
1000
,
0001
0010
0100
0010
,
0010
0100
0001
0000
,
0001
0010
0100
0010
,
0001
0100
0001
1000
,
0002
0000
0000
0003
,
0020
0000
0000
0030
,
0100
0001
1000
0001
,
0010
0100
0001
1000
,
0002
0000
0000
0003
,
0020
0000
0000
0030
,
0100
0001
1000
0001
,
0010
0100
0001
1000
,
0200
0000
0000
0300
,
0002
0000
0000
0003
,
0010
0100
0001
1000
,
0100
0001
0010
0000
,
0200
0000
0000
0000
,
0020
0000
0000
0330
,
0002
0000
0000
0000
,
2000
0000
0000
0000
,
3003
0100
0001
0010
,
0000
0100
0001
1000
,
0000
0001
0010
0100
,
0001
1000
0001
0010
,
0100
0001
0100
0010
,
0100
0010
0001
0000
,
0001
0010
0100
0001
,
1000
0001
0010
0100
,
0001
1000
0001
0010
,
0100
0001
0100
0000
,
0010
0100
0001
1000
,
0001
0010
0100
0001
,
2000
0000
0000
3000
,
0200
0000
0000
0300
,
0010
0001
1000
0010
,
0100
0001
1000
0001
,
0020
0000
0000
0030
,
0200
0000
0000
0300
,
0001
1000
0100
0001
,
0010
0100
0001
1000
,
2002
0000
0000
0000
,
0000
0000
0000
0000
,
0000
0000
0000
0000
,
0000
0000
0000
3003
,
0100
0000
0000
0000
,
0001
0000
0000
0000
,
1000
0000
0000
0000
,
0100
0000
0000
0000
,
0010
0000
0000
0000
,
0100
0000
0000
0000
,
0010
0000
0100
0000
,
0001
0000
0000
0000
,
1000
0000
0000
0000
,
0100
0000
0000
0000
,
0010
0000
0000
0000
,
0100
0000
2002
0000
,
0000
0000
0000
0000
,
0000
0000
0000
0000
,
0000
0000
0000
3003
,
0010
0001
0100
0010
,
2002
0000
0000
0000
,
0000
0000
0000
0000
,
0000
0000
0000
0000
,
0000
0000
0000
3003
,
0200
0000
0000
0300
,
0002
0000
0000
0003
,
0010
0100
0001
1000
,
0001
0010
0100
0001
,
0020
0000
0000
0030
,
0200
0000
0000
0300
,
0001
1000
0100
0001
,
0010
0100
0001
1000
,
0001
0010
0100
0001
,
1000
0001
0010
0100
,
0001
1000
0001
0010
,
0100
0001
1000
0001
,
0010
0100
0001
1000
,
0001
0010
0100
0001
,
0002
1000
2000
0000
,
3003
0000
0000
0000
;

//---------------dance-single - ----------------
#NOTES:
     dance-single:
     :
     Beginner:
     2:
     0.083732,0.137373,0.018316,0.000000,0.000000,128.000000,124.000000,4.000000,0.000000,0.000000,0.000000,0.083732,0.137373,0.018316,0.000000,0.000000,128.000000,124.000000,4.000000,0.000000,0.000000,0.000000:
// measure 0
0000
0000
0000
0000
,  // measure 1
0000
0000
0000
0000
,  // measure 2
0100
0000
0000
0000
,  // measure 3
0001
0000
0000
0000
,  // measure 4
1000
0000
0000
0000
,  // measure 5
0100
0000
0000
0000
,  // measure 6
0010
0000
0000
0000
,  // measure 7
0100
0000
0000
0000
,  // measure 8
0001
0000
0000
0000
,  // measure 9
0000
0000
0000
0000
,  // measure 10
1000
0000
0000
0000
,  // measure 11
0100
0000
0000
0000
,  // measure 12
0001
0000
0000
0000
,  // measure 13
0000
0000
0000
0000
,  // measure 14
0010
0000
0000
0000
,  // measure 15
0100
0000
0000
0000
,  // measure 16
0001
0000
0000
0000
,  // measure 17
0000
0000
0000
0000
,  // measure 18
1000
0000
0010
0000
,  // measure 19
0100
0100
0100
0000
,  // measure 20
0010
0000
1000
0000
,  // measure 21
0001
0000
0001
0000
,  // measure 22
0010
0000
0100
0000
,  // measure 23
0010
0010
0010
0000
,  // measure 24
0100
0000
0001
0000
,  // measure 25
1000
0000
0100
0000
,  // measure 26
0010
0000
0000
0000
,  // measure 27
0100
0000
0000
0000
,  // measure 28
0001
0000
1000
0000
,  // measure 29
0100
0000
0001
0000
,  // measure 30
1000
0000
0000
0000
,  // measure 31
0010
0000
0000
0000
,  // measure 32
0100
0000
0001
0000
,  // measure 33
1000
0000
0100
0000
,  // measure 34
0010
0000
0000
0000
,  // measure 35
0100
0000
0000
0000
,  // measure 36
0001
0000
0000
0000
,  // measure 37
1000
0000
0000
0000
,  // measure 38
0100
0000
0000
0000
,  // measure 39
0010
0000
0000
0000
,  // measure 40
0100
0000
0000
0000
,  // measure 41
0001
0000
0000
0000
,  // measure 42
1000
0000
0000
0000
,  // measure 43
0100
0000
0000
0000
,  // measure 44
0100
0000
0000
0000
,  // measure 45
0000
0000
0000
0000
,  // measure 46
0010
0000
0001
0000
,  // measure 47
0100
0100
0100
0000
,  // measure 48
0001
0000
1000
0000
,  // measure 49
0100
0000
0001
0000
,  // measure 50
0010
0000
0100
0000
,  // measure 51
0001
0001
0001
0000
,  // measure 52
0010
0000
0100
0000
,  // measure 53
0001
0000
0100
0000
,  // measure 54
0100
0000
0000
0000
,  // measure 55
0010
0000
0000
0000
,  // measure 56
0001
0000
1000
0000
,  // measure 57
0100
0000
0001
0000
,  // measure 58
0010
0000
0000
0000
,  // measure 59
0100
0000
0000
0000
,  // measure 60
0001
0000
1000
0000
,  // measure 61
0100
0000
0001
0000
,  // measure 62
1001
0000
0000
0000
,  // measure 63
0000
0000
0000
0000
,  // measure 64
0000
0000
0000
0000
,  // measure 65
0000
0000
0000
0000
,  // measure 66
1000
0000
0000
0000
,  // measure 67
0001
0000
0000
0000
,  // measure 68
0010
0000
0000
0000
,  // measure 69
0100
0000
0000
0000
,  // measure 70
0001
0000
0000
0000
,  // measure 71
1000
0000
0000
0000
,  // measure 72
0100
0000
0000
0000
,  // measure 73
0010
0000
0000
0000
,  // measure 74
0100
0000
0000
0000
,  // measure 75
0001
0000
0000
0000
,  // measure 76
1000
0000
0000
0000
,  // measure 77
0100
0000
0000
0000
,  // measure 78
1001
0000
0000
0000
,  // measure 79
0000
0000
0000
0000
,  // measure 80
0000
0000
0000
0000
,  // measure 81
0000
0000
0000
0000
,  // measure 82
1001
0000
0000
0000
,  // measure 83
0000
0000
0000
0000
,  // measure 84
0000
0000
0000
0000
,  // measure 85
0000
0000
0000
0000
,  // measure 86
0010
0000
0000
0000
,  // measure 87
0100
0000
0000
0000
,  // measure 88
0001
0000
0010
0000
,  // measure 89
1000
0000
0001
0000
,  // measure 90
0010
0000
0000
0000
,  // measure 91
0001
0000
0000
0000
,  // measure 92
1000
0000
0001
0000
,  // measure 93
0100
0000
0001
0000
,  // measure 94
1000
0000
0100
0000
,  // measure 95
0001
0000
0010
0000
,  // measure 96
0100
0000
0001
0000
,  // measure 97
1000
0000
0100
0000
,  // measure 98
0001
0000
0010
0000
,  // measure 99
0100
0000
0001
0000
,  // measure 100
1001
0000
0000
0000
;
