#VERSION:0.83;
#TITLE:go!;
#SUBTITLE:;
#ARTIST:Cortis;
#TITLETRANSLIT:;
#SUBTITLETRANSLIT:;
#ARTISTTRANSLIT:;
#GENRE:;
#ORIGIN:;
#CREDIT:;
#BANNER:;
#BACKGROUND:;
#PREVIEWVID:;
#JACKET:;
#CDIMAGE:;
#DISCIMAGE:;
#LYRICSPATH:;
#CDTITLE:;
#MUSIC:go!.ogg;
#OFFSET:0.000000;
#SAMPLESTART:100.059883;
#SAMPLELENGTH:12.000000;
#SELECTABLE:YES;
#BPMS:0.000=150.000;
#STOPS:0.000=0.050;
#DELAYS:;
#WARPS:;
#TIMESIGNATURES:0.000=4=4;
#TICKCOUNTS:0.000=4;
#COMBOS:0.000=1;
#SPEEDS:0.000=1.000=0.000=0;
#SCROLLS:0.000=1.000;
#FAKES:;
#LABELS:0.000=Song Start;
#BGCHANGES:;
#KEYSOUNDS:;
#ATTACKS:
;

//---------------dance-single - ----------------
#NOTEDATA:;
#CHARTNAME:;
#STEPSTYPE:dance-single;
#DESCRIPTION:;
#CHARTSTYLE:;
#DIFFICULTY:Hard;
#METER:12;
#RADARVALUES:0.473531,0.604606,0.450758,0.115438,0.038479,603.000000,521.000000,82.000000,21.000000,0.000000,0.000000,0.000000,0.000000,0.000000,0.473531,0.604606,0.450758,0.115438,0.038479,603.000000,521.000000,82.000000,21.000000,0.000000,0.000000,0.000000,0.000000,0.000000;
#CREDIT:;
#NOTES:
// measure 0
0000
0000
0000
0000
,  // measure 1
0000
0000
0000
0000
,  // measure 2
0000
0000
0000
0000
,  // measure 3
0000
0000
0000
0000
,  // measure 4
0020
0000
0000
0000
,  // measure 5
0000
0000
0000
0030
,  // measure 6
0002
0000
0000
0000
,  // measure 7
0000
0000
0000
0003
,  // measure 8
0200
0000
0010
0300
,  // measure 9
1000
0001
0100
0010
0001
0100
0001
0100
,  // measure 10
2000
0000
0100
3000
,  // measure 11
0010
0001
1000
0001
0100
0010
1000
0001
,  // measure 12
0020
0000
0000
0000
0100
0000
0030
0100
,  // measure 13
0010
0001
0100
0001
0100
1000
0001
0100
,  // measure 14
0020
0000
0100
0030
,  // measure 15
0001
0100
0010
0001
1000
0001
0100
0010
,  // measure 16
1001
0000
0010
0100
0101
0000
1000
0000
,  // measure 17
0101
1000
0100
0000
0101
0000
0001
0000
,  // measure 18
1001
0000
0010
0001
1001
0000
0100
0000
,  // measure 19
1000
0001
0010
0100
0001
1000
0001
0010
,  // measure 20
0110
0000
1000
0001
1001
0000
1000
0000
,  // measure 21
0011
0010
0001
0000
0110
0000
1000
0000
,  // measure 22
0110
0000
0001
1000
1001
0000
0010
0000
,  // measure 23
0010
0000
0001
0000
1000
0000
0001
0000
0100
0000
0010
0000
1000
0001
0000
0000
,  // measure 24
0011
0000
0000
0000
0110
0000
0000
0000
0000
0000
0000
0000
0010
0100
0000
0000
,  // measure 25
1001
0000
0000
0000
0110
0000
0000
0000
0000
0000
0000
0000
0001
1000
0000
0000
,  // measure 26
0110
0000
0000
0000
0101
0000
0000
0000
0000
0000
0000
0000
1000
0100
0000
0000
,  // measure 27
0020
0000
0000
0000
0000
0000
0000
0000
0031
0000
0000
0000
1000
0010
0100
0000
,  // measure 28
0001
0000
0000
0000
1001
0000
0000
0000
0000
0000
0000
0000
1000
0010
0100
0000
,  // measure 29
0001
0000
0000
0000
1001
0000
0000
0000
0000
0000
0000
0000
1000
0001
1000
0000
,  // measure 30
0010
0000
0110
0000
0000
0000
1000
0100
,  // measure 31
0002
0000
0010
0003
,  // measure 32
1001
0000
0000
0001
1001
0000
0110
0000
,  // measure 33
0000
1000
0101
0000
0100
0010
1000
0100
,  // measure 34
0001
0100
0001
1000
0001
0010
0100
0001
,  // measure 35
0100
1000
1001
0000
0110
0000
0101
0000
,  // measure 36
0001
1000
0001
0100
0001
1000
0010
0100
,  // measure 37
1001
0001
1001
0000
0101
0000
1010
0000
,  // measure 38
0001
0100
0010
0001
1000
0001
0100
0010
,  // measure 39
1001
0001
1001
0000
0101
0000
0110
0000
,  // measure 40
0101
0000
1100
0001
1000
0001
0110
0000
,  // measure 41
0101
1000
1001
0000
0101
0001
1001
0000
,  // measure 42
0101
0000
0011
0100
0001
0100
0001
0000
,  // measure 43
0101
0001
0100
0010
1001
0000
0101
0000
,  // measure 44
1000
0001
0010
0100
1000
0001
0110
0000
,  // measure 45
0010
0001
1000
0001
0100
0001
1000
0000
,  // measure 46
0001
0100
0010
0001
1000
0001
0100
0010
,  // measure 47
0001
1000
0001
0100
0001
0100
1000
0000
,  // measure 48
0200
0000
0001
0300
,  // measure 49
0010
0001
1000
0001
0100
0010
0100
0001
,  // measure 50
2000
0000
0100
3000
,  // measure 51
0100
0010
0001
1000
0001
0100
0001
0100
,  // measure 52
2000
0000
0100
0000
0100
0000
3000
0001
,  // measure 53
0100
0010
0001
1000
0001
0100
0001
0100
,  // measure 54
2000
0100
0100
3000
,  // measure 55
0001
0100
0010
0001
1000
0001
0100
0010
,  // measure 56
1001
0000
0000
0001
1001
0000
1000
0000
,  // measure 57
0110
0001
1000
0000
0110
0000
0001
0000
,  // measure 58
1001
0000
0000
0100
0110
0000
0001
0000
,  // measure 59
1000
0100
0001
0100
0001
1000
0001
0000
,  // measure 60
0110
0000
0000
0001
1001
0000
0010
0000
,  // measure 61
0110
0010
0001
0000
0110
0000
1000
0000
,  // measure 62
1001
0000
0000
0010
0110
0000
0001
0000
,  // measure 63
1000
0000
0100
0000
0001
0000
0100
0000
0001
0000
1000
0000
0001
1000
0000
0000
,  // measure 64
0100
0000
0010
0100
0001
0010
0001
0100
,  // measure 65
0001
0100
1000
0000
0000
0000
0101
0000
,  // measure 66
1000
0100
0001
0100
0001
0010
0001
1000
,  // measure 67
0001
0000
0100
0000
1000
0000
0000
0000
0000
0000
0001
0100
0010
0000
0100
0000
,  // measure 68
0001
0010
0001
1000
0100
0000
0100
0001
,  // measure 69
0100
1000
0001
0000
0000
0000
1000
0100
,  // measure 70
1000
0100
1000
0100
0001
0100
0001
1000
,  // measure 71
0001
0100
0202
0303
,  // measure 72
0010
0001
1000
0001
0100
0010
1001
0000
,  // measure 73
0001
1000
0001
0100
0001
0100
1000
0000
,  // measure 74
0001
0100
0010
0001
1000
0001
0100
0010
,  // measure 75
0001
0100
0001
0100
1000
0000
0100
0000
,  // measure 76
0100
0001
0100
1000
,  // measure 77
0011
1010
0011
0110
,  // measure 78
1000
0100
0001
0100
0001
1000
0001
0001
,  // measure 79
1000
0001
0100
0010
0101
0000
0101
0000
,  // measure 80
2000
0000
0001
3000
,  // measure 81
0100
0001
0100
0010
0001
1000
0001
0100
,  // measure 82
2000
0000
0100
3000
,  // measure 83
0001
0010
0100
0001
1000
0001
0010
0100
,  // measure 84
0002
0000
0000
0000
0010
0000
0003
0100
,  // measure 85
0001
1000
0001
0010
0100
0001
1000
0001
,  // measure 86
0020
0000
0100
0030
,  // measure 87
0001
0100
0010
0001
1000
0001
0100
0010
,  // measure 88
1001
0000
0000
1000
0101
0000
0010
0000
,  // measure 89
0110
0001
1000
0000
0101
0000
0010
0000
,  // measure 90
0110
0000
0000
0001
1001
0000
0010
0000
,  // measure 91
0100
0001
1000
0001
0010
0100
0001
0000
,  // measure 92
1001
0000
0000
0010
0110
0000
0001
0000
,  // measure 93
1010
0100
0100
0000
0110
0000
0001
0000
,  // measure 94
1100
0000
0000
0001
0101
0000
0010
0000
,  // measure 95
0010
0001
1000
0001
0100
0010
1000
0001
,  // measure 96
0100
0000
0000
0000
0001
0000
0000
0000
0000
0000
0000
0000
1000
0001
0000
0000
,  // measure 97
0001
0000
0000
0000
0100
0000
0000
0000
0000
0000
0000
0000
0100
0001
0100
0000
,  // measure 98
0010
0000
0100
0000
0000
0000
1000
0100
,  // measure 99
0002
0000
0000
0000
0000
0000
0000
0000
0013
0000
0000
0000
0001
1000
0001
0000
,  // measure 100
0010
0000
0000
0000
0100
0000
0000
0000
0000
0000
0000
0000
1000
0001
1000
0000
,  // measure 101
0010
0000
0000
0000
0001
0000
0000
0000
0000
0000
0000
0000
1000
0001
1000
0000
,  // measure 102
0100
0001
0000
0000
,  // measure 103
2000
0000
0200
0000
,  // measure 104
0000
0000
0000
3300
;
