#VERSION:0.83;
#TITLE:gnarly;
#SUBTITLE:;
#ARTIST:Katseye;
#TITLETRANSLIT:;
#SUBTITLETRANSLIT:;
#ARTISTTRANSLIT:;
#GENRE:;
#ORIGIN:;
#CREDIT:;
#BANNER:;
#BACKGROUND:;
#PREVIEWVID:;
#JACKET:;
#CDIMAGE:;
#DISCIMAGE:;
#LYRICSPATH:;
#CDTITLE:;
#MUSIC:Gnarly (Clean Edit).mp3;
#OFFSET:0.000000;
#SAMPLESTART:100.059883;
#SAMPLELENGTH:12.000000;
#SELECTABLE:YES;
#BPMS:0.000=135.000,
168.000=540.000,
177.500=135.000;
#STOPS:0.000=0.500,
188.000=1.300;
#DELAYS:;
#WARPS:;
#TIMESIGNATURES:0.000=4=4;
#TICKCOUNTS:0.000=4;
#COMBOS:0.000=1;
#SPEEDS:0.000=1.000=0.000=0;
#SCROLLS:0.000=1.000;
#FAKES:;
#LABELS:0.000=Song Start;
#BGCHANGES:;
#KEYSOUNDS:;
#ATTACKS:
;

//---------------dance-single - ----------------
#NOTEDATA:;
#CHARTNAME:;
#STEPSTYPE:dance-single;
#DESCRIPTION:;
#CHARTSTYLE:;
#DIFFICULTY:Hard;
#METER:13;
#RADARVALUES:0.499141,0.641140,0.225184,0.058112,0.359569,481.000000,450.000000,31.000000,8.000000,0.000000,0.000000,0.000000,0.000000,0.000000,0.499141,0.641140,0.225184,0.058112,0.359569,481.000000,450.000000,31.000000,8.000000,0.000000,0.000000,0.000000,0.000000,0.000000;
#CREDIT:;
#NOTES:
0000
0000
0000
0000
,
0000
0000
0000
0000
,
0000
0000
0000
0000
,
1000
0001
0010
0000
0000
0000
0100
0000
0000
0010
0000
0001
,
0100
0010
1000
0000
0000
0000
0000
0000
0000
0000
0000
0000
0100
0000
0000
0000
0000
0000
0010
0000
0000
0000
0000
0000
,
0100
0000
0000
0000
0001
0010
0000
0000
0100
0000
0000
0000
0010
0000
0000
0000
,
0010
0001
1000
0001
0100
0010
0001
0000
1000
0000
0000
0000
1001
0000
0000
0000
,
0010
0000
0000
0100
0000
0000
0000
0000
0100
0000
0000
0000
0010
0000
0000
0000
,
0100
0001
0000
1000
0000
0100
0001
0000
0010
0000
0000
0000
0100
0000
0001
0000
,
1000
0100
0001
0100
0001
0000
2000
0000
,
0100
0000
0000
0100
0000
0000
0100
0000
0200
0000
0000
0000
3300
0000
0001
0000
,
0110
0000
0000
0000
1000
0100
0000
0001
0010
0000
0001
1000
0000
0000
1001
0000
,
0101
0000
0000
0000
0100
0000
0001
0000
1000
0000
0010
0100
0000
0000
0101
0000
,
0101
0000
0000
0000
1000
0100
0001
0000
0000
0100
0000
0001
0000
0000
0000
1000
,
0000
0001
0000
0010
0100
0000
0001
0010
0000
0000
0001
1000
0000
0000
0000
0000
,
0100
0000
0001
1000
0000
0000
0000
0000
0020
0000
0000
0000
0000
0000
0000
0000
,
0100
0100
0100
0100
0200
0000
0330
0000
,
0001
0000
0000
0100
0001
0000
0010
0000
0000
1000
0100
0000
0001
0000
0100
0000
,
0010
0000
0000
0001
0000
0000
1000
0000
0000
0001
0010
0000
0100
0000
1000
0000
,
0100
0000
0000
0001
0010
0000
1000
0000
0000
0100
0001
0000
0010
0000
0100
0000
,
1000
0000
0000
0001
0000
0000
0010
0000
0100
0010
0001
0000
1000
0000
0100
0000
,
0010
0000
0000
0100
0000
0000
0010
0000
0000
1000
0100
0000
0001
0000
0010
0000
,
0001
0000
0000
0100
0000
0000
0010
0000
0000
0100
1000
0000
0010
0000
0100
0000
,
1000
0000
0100
0001
0010
0000
0100
0001
1000
0000
0010
0100
0001
1000
0001
0010
,
0100
0000
0000
0100
0000
0000
0010
0000
2002
0000
0000
0000
3003
0000
0010
0000
,
0000
0000
1001
0001
0100
0001
0000
0000
,
0001
0100
0010
0001
1000
0001
0100
0010
,
1001
0000
0000
0000
0000
0000
0100
0010
,
1001
0000
0000
0000
0010
0100
0001
0000
1000
0000
0000
0000
0100
0000
0001
0000
,
0100
0000
0010
0001
1000
0100
0000
0000
,
0010
0001
1000
0001
0100
0010
0001
0100
,
1001
0000
0000
0000
0000
0000
0100
0001
,
0100
0001
0100
0000
0010
0100
0010
0000
0000
0000
0000
0001
1000
0000
0000
0000
,
0010
0000
0000
0001
1000
0000
0100
0000
0000
0010
0100
0000
0001
0000
1000
0000
,
0100
0000
0000
0010
0000
0000
0001
0000
0000
0100
0010
0000
1000
0000
0100
0000
,
1001
0000
0000
0000
0000
0000
0010
0100
,
0001
0010
0001
0000
1000
0010
1000
0000
0000
0000
0000
0000
0000
0000
0000
0000
,
0100
0000
0000
0010
0000
0000
0001
0000
0000
1000
0001
0000
0010
0000
0100
0000
,
0010
0000
0000
0001
0000
0000
0100
0000
0000
0001
0010
0000
1000
0000
0100
0000
,
0001
0000
0000
0000
0000
0000
0001
0100
,
1000
0100
1000
0000
0100
0010
0100
0000
0101
0000
0101
0000
0101
0000
0000
0000
,
2002
0000
0000
0000
,
0000
0000
0000
0000
,
0000
0000
0000
0000
,
0000
0000
3003
0010
0001
0100
1001
0000
,
0000
0000
0000
0100
1000
0001
0100
0010
,
0110
0000
0101
0000
0001
0010
0100
0010
,
0000
0100
0000
0010
,
0100
0000
0000
0001
0000
0000
0000
0000
0000
0000
0000
0000
1000
0000
0000
0000
,
0100
0000
0010
0100
1001
0000
0101
0101
,
0101
0010
0001
0100
0010
0001
0100
0000
,
0000
0000
0010
0001
0100
0000
0001
0000
,
0100
0000
0001
0010
1000
0000
0001
0000
0000
1000
0100
0000
0001
0000
0010
0000
,
0001
0000
0000
0100
0000
0000
0010
0000
0000
0001
0100
0000
1000
0000
0100
0000
,
0100
0000
0000
0010
0001
0000
1000
0000
0000
0100
0001
0000
0010
0000
0010
0000
,
0001
0000
0000
0100
0000
0000
1000
0000
0000
0001
0010
0000
0100
0000
0001
0000
,
0010
0000
0000
0001
0000
0000
0100
0000
0000
1000
0100
0000
0001
0000
0100
0000
,
0010
0000
0100
0001
0000
0000
0010
0000
0000
0001
0100
0000
1000
0000
0010
0000
,
1000
0001
1000
0001
1000
0000
0001
0000
1000
0001
1000
0001
1000
0001
1000
0001
,
1000
0000
0000
0001
0000
0000
0010
0000
0100
0000
0000
0000
0010
0000
0000
0000
,
0101
0000
1001
0001
0010
0001
0000
0000
,
0001
0100
0010
0001
1000
0001
0100
0010
,
1001
0000
0000
0000
0000
0000
0100
0001
,
0101
0000
0000
0000
0100
0010
0100
0000
0000
0000
0000
0000
0000
0000
0000
0000
,
1000
0000
0100
0001
0100
0001
0000
0000
,
0001
0100
0010
0001
1000
0001
0100
0010
,
1001
0000
0000
0000
0000
0000
0001
0100
,
1000
0001
1000
0000
0100
0001
0100
0000
0010
0100
0010
0000
1000
0000
0000
0000
,
0100
0000
0000
0001
0000
0000
0010
0000
0000
0001
0100
0000
1000
0000
0001
0000
,
0001
0000
0000
0100
0000
0000
0010
0000
0000
0010
0100
0000
0001
0000
0010
0000
,
1001
0000
0000
0000
0000
0000
0001
0100
,
1000
0001
1000
0000
0100
0001
0100
0000
0010
0100
0010
0000
0010
0000
0110
0000
,
0001
0000
0000
1000
0000
0000
0100
0000
0000
0001
0010
0000
0100
0000
0001
0000
,
0001
0000
0000
0100
0000
0000
0010
0000
0000
0100
0001
0000
0100
0000
0010
0000
,
1100
0000
0000
0000
0000
0000
0001
0100
,
1000
0001
1000
0000
0100
0001
0100
0000
0000
0000
0000
0000
0000
0000
0000
0000
,
1000
0000
0000
0001
0000
0000
0010
0000
0100
0000
0000
0000
0010
0000
0000
0000
;

//---------------dance-single - ----------------
#NOTEDATA:;
#CHARTNAME:;
#STEPSTYPE:dance-single;
#DESCRIPTION:;
#CHARTSTYLE:;
#DIFFICULTY:Medium;
#METER:8;
#RADARVALUES:0.319616,0.557513,0.246976,0.101696,0.000000,308.000000,274.000000,34.000000,14.000000,0.000000,0.000000,0.000000,0.000000,0.000000,0.319616,0.557513,0.246976,0.101696,0.000000,308.000000,274.000000,34.000000,14.000000,0.000000,0.000000,0.000000,0.000000,0.000000;
#CREDIT:;
#NOTES:
0000
0000
0000
0000
,
0000
0000
0000
0000
,
0000
0000
0000
0000
,
0100
0001
0010
0000
0100
0000
0001
0000
,
0000
0000
0001
0100
,
1000
0100
0100
0010
,
0001
1000
0001
0100
0010
0000
1001
0000
,
1000
0001
0100
0010
,
0001
0100
0110
0000
,
0002
0000
0000
0000
,
0200
0000
0000
0303
,
0110
0000
0001
0100
0001
0100
1000
0101
,
0101
0000
0010
0001
0100
0100
1100
1100
,
0100
0000
0000
0000
,
0000
0000
0000
0000
,
0020
0000
0200
0300
,
0100
0100
0100
0100
0200
0000
0330
0000
,
0001
0000
0100
0000
0010
0000
0001
0100
,
1000
0000
0100
0000
0010
0000
0001
0100
,
1000
0000
0010
0000
0100
0000
0001
1000
,
0100
0000
0001
0000
0010
0000
0100
0001
,
0010
0000
0100
0000
0001
0000
1000
0100
,
0001
0000
0010
0000
0100
0000
0001
1000
,
0100
0000
0100
0001
0100
0010
0001
0100
,
2002
0000
0000
3003
,
0000
0000
0001
0010
0100
1000
0000
0000
,
0001
0010
0100
0001
0010
0001
0100
0010
,
1001
0000
0000
0000
0000
0000
0100
0010
,
1001
0000
0000
0000
,
0100
0000
0010
0001
1000
0100
0000
0000
,
0010
0001
1000
0001
0100
0001
1000
0100
,
1001
0000
0000
0000
0000
0000
0010
0100
,
1001
0000
0000
0000
,
0100
0000
0001
0000
0010
0000
0100
0001
,
1000
0000
0100
0000
0001
0000
0010
0001
,
0101
0000
0000
0000
0000
0000
1000
0100
,
1100
0000
0000
0000
,
0100
0000
0001
0000
0100
0000
0001
0100
,
1000
0000
0001
0000
0010
0000
0001
0010
,
0011
0000
0000
0000
0000
0000
0010
0001
,
0110
2002
0000
0000
,
0000
0000
0000
0000
,
0000
0000
0000
0000
,
0000
0000
0000
0000
,
0000
0000
3003
1001
,
0000
0000
0000
0000
1000
0001
0100
0010
,
0011
1001
0001
0200
,
0000
0010
0010
0310
,
0100
0001
0000
0000
0000
0000
1000
0000
,
0100
0000
0100
0001
1001
0000
0101
0101
,
0101
0010
0100
0000
,
0000
0001
0100
1000
,
0001
0000
0100
0000
0010
0000
0001
0100
,
1000
0000
0100
0000
0001
0000
0010
0100
,
0001
0000
0010
0000
0100
0000
0001
1000
,
0100
0000
0001
0000
0010
0000
0100
0001
,
0010
0000
0100
0000
0001
0000
1000
0100
,
0001
0000
0001
0000
0100
0000
0010
0001
,
0100
0000
0010
0001
1000
0001
0100
0010
,
2002
0000
0000
0000
,
3003
0000
1000
0100
0001
0100
0000
0000
,
0010
0100
0001
1000
0001
0010
0100
0001
,
0101
0000
0000
0000
0000
0000
0010
0100
,
0101
0000
0000
0000
,
0000
0000
1000
0100
0001
0010
0000
0000
,
0100
0010
0001
1000
0001
0100
0001
0100
,
1100
0000
0000
0000
0000
0000
0001
0100
,
0110
0000
0000
0000
,
1000
0000
0100
0000
0001
0000
0010
0100
,
0001
0000
0100
0000
0001
0000
1000
0100
,
0101
0000
0000
0000
0000
0000
1000
0100
,
0101
0000
0000
0000
,
0010
0000
0001
0000
1000
0000
0100
0001
,
0010
0000
0100
0000
0001
0000
1000
0001
,
0101
0000
0000
0000
0000
0000
0010
0100
,
0101
0000
0000
0000
,
2002
0000
0000
3003
;

//---------------dance-single - ----------------
#NOTEDATA:;
#CHARTNAME:;
#STEPSTYPE:dance-single;
#DESCRIPTION:;
#CHARTSTYLE:;
#DIFFICULTY:Easy;
#METER:3;
#RADARVALUES:0.176412,0.334508,0.225184,0.094432,0.000000,170.000000,139.000000,31.000000,13.000000,0.000000,0.000000,0.000000,0.000000,0.000000,0.176412,0.334508,0.225184,0.094432,0.000000,170.000000,139.000000,31.000000,13.000000,0.000000,0.000000,0.000000,0.000000,0.000000;
#CREDIT:;
#NOTES:
0000
0000
0000
0000
,
0000
0000
0000
0000
,
0000
0000
0000
0000
,
0100
0000
0110
0000
,
0001
0000
1001
0000
,
0010
0000
0110
0000
,
0100
0000
0000
1001
,
1001
0000
0101
0000
,
0010
0000
0000
0000
,
0200
0000
0000
0000
,
0020
0000
0000
0330
,
1000
0001
0100
0011
,
1001
0001
0100
0011
,
0200
0000
0000
0000
,
0000
0000
0000
0000
,
0020
0000
0000
0000
,
0000
0000
0000
0330
,
1000
1000
0000
0000
,
0000
0000
0000
0000
,
0100
0100
0000
0000
,
0000
0000
0000
0000
,
0001
0000
0000
0000
0000
0000
1000
0001
,
0010
0000
0000
0000
0000
0000
0100
0001
,
0010
0010
0100
0001
,
2002
0000
0000
0000
,
3003
0010
0100
0000
,
0010
0100
0001
1000
,
1001
0000
0000
0010
,
0110
0000
0000
0000
,
0000
0010
0100
0000
,
1000
0001
0010
0100
,
0101
0000
0000
0010
,
0110
0000
0000
0000
,
0001
0000
0000
0000
0000
0000
1000
0100
,
0001
0000
0000
0010
,
0101
0000
0000
1000
,
1001
0000
0000
0000
,
0010
0000
0000
0000
0000
0000
0100
0001
,
0100
0000
0000
0010
,
0110
0000
0000
1000
,
1001
0000
0000
0000
,
2002
0000
0000
0000
,
0000
0000
0000
0000
,
0000
0000
0000
0000
,
0000
0000
3003
1001
,
0000
0000
0000
0001
,
0100
1000
0000
0200
,
0000
0000
0300
0001
,
0001
0000
0000
0100
,
1000
0000
0101
0000
,
0010
0100
0001
0000
,
0000
0100
0010
0001
,
0100
0100
0000
0000
,
0000
0000
0000
0000
,
0010
0010
0000
0000
,
0000
0000
0000
0000
,
1000
0000
0000
0000
0000
0000
0100
0001
,
0100
0000
0000
0000
0000
0000
0010
0100
,
0001
1000
0100
0001
,
2002
0000
0000
0000
,
3003
0010
0100
0000
,
0001
0010
0100
0001
,
1001
0000
0000
0010
,
0110
0000
0000
0000
,
0000
1000
0100
0000
,
0001
0010
0100
0001
,
0110
0000
0000
1000
,
1001
0000
0000
0000
,
0010
0000
0000
0000
0000
0000
0100
0001
,
0100
0000
0000
0010
,
0110
0000
0000
1000
,
1001
0000
0000
0000
,
0010
0000
0000
0000
0000
0000
0100
0001
,
1000
0000
0000
0010
,
0110
0000
0000
1000
,
1001
0000
0000
0000
,
0220
0000
0000
0330
;

//---------------dance-single - ----------------
#NOTEDATA:;
#CHARTNAME:;
#STEPSTYPE:dance-single;
#DESCRIPTION:;
#CHARTSTYLE:;
#DIFFICULTY:Beginner;
#METER:1;
#RADARVALUES:0.116224,0.220826,0.217920,0.000000,0.000000,112.000000,82.000000,30.000000,0.000000,0.000000,0.000000,0.000000,0.000000,0.000000,0.116224,0.220826,0.217920,0.000000,0.000000,112.000000,82.000000,30.000000,0.000000,0.000000,0.000000,0.000000,0.000000,0.000000;
#CREDIT:;
#NOTES:
// measure 0
0000
0000
0000
0000
,  // measure 1
0000
0000
0000
0000
,  // measure 2
0000
0000
0000
0000
,  // measure 3
0100
0000
1001
0000
,  // measure 4
0001
0000
0110
0000
,  // measure 5
0100
0000
0101
0000
,  // measure 6
0000
0000
0000
1001
,  // measure 7
1001
0000
1001
0000
,  // measure 8
0000
0000
0000
0000
,  // measure 9
0000
0000
0000
0000
,  // measure 10
0000
0000
0000
0000
,  // measure 11
0100
0000
0000
0000
,  // measure 12
0110
0000
0000
0000
,  // measure 13
0110
0000
0000
0000
,  // measure 14
0000
0000
0000
0000
,  // measure 15
0000
0000
0000
0000
,  // measure 16
0000
0000
0000
0000
,  // measure 17
1000
1000
0000
0000
,  // measure 18
0000
0000
0000
0000
,  // measure 19
0100
0100
0000
0000
,  // measure 20
0000
0000
0000
0000
,  // measure 21
0010
0000
0000
0000
,  // measure 22
0100
0000
0000
0000
,  // measure 23
0010
0000
0010
0000
,  // measure 24
1001
0000
0000
0000
,  // measure 25
0000
1000
1000
0000
,  // measure 26
0100
0100
0100
0000
,  // measure 27
1001
0000
0000
0000
,  // measure 28
1001
0000
0000
0000
,  // measure 29
0000
0001
0001
0000
,  // measure 30
1000
1000
1000
0000
,  // measure 31
1001
0000
0000
0000
,  // measure 32
1001
0000
0000
0000
,  // measure 33
0010
0000
0000
0000
,  // measure 34
0100
0000
0000
0000
,  // measure 35
1001
0000
0000
0000
,  // measure 36
1001
0000
0000
0000
,  // measure 37
0010
0000
0000
0000
,  // measure 38
0100
0000
0000
0000
,  // measure 39
1001
0000
0000
0000
,  // measure 40
1001
0000
0000
0000
,  // measure 41
1001
0000
0000
0000
,  // measure 42
0000
0000
0000
0000
,  // measure 43
0000
0000
0000
0000
,  // measure 44
0000
0000
0000
1001
,  // measure 45
0000
0000
0000
0000
,  // measure 46
0000
0100
0000
0001
,  // measure 47
0000
0000
0000
0000
,  // measure 48
1000
0000
0000
0000
,  // measure 49
0100
0000
0110
0000
,  // measure 50
0000
0000
0000
0000
,  // measure 51
0000
0000
0000
0000
,  // measure 52
1000
1000
0000
0000
,  // measure 53
0000
0000
0000
0000
,  // measure 54
0100
0100
0000
0000
,  // measure 55
0000
0000
0000
0000
,  // measure 56
0001
0000
0000
0000
,  // measure 57
1000
0000
0000
0000
,  // measure 58
0100
0000
0010
0000
,  // measure 59
1001
0000
0000
0000
,  // measure 60
0000
0100
0100
0000
,  // measure 61
0001
0001
0001
0000
,  // measure 62
0110
0000
0000
0000
,  // measure 63
0110
0000
0000
0000
,  // measure 64
1000
1000
0000
0000
,  // measure 65
0100
0100
0100
0000
,  // measure 66
1001
0000
0000
0000
,  // measure 67
0110
0000
0000
0000
,  // measure 68
0010
0000
0000
0000
,  // measure 69
0100
0000
0000
0000
,  // measure 70
1001
0000
0000
0000
,  // measure 71
1001
0000
0000
0000
,  // measure 72
0010
0000
0000
0000
,  // measure 73
0001
0000
0000
0000
,  // measure 74
0101
0000
0000
0000
,  // measure 75
1100
0000
0000
0000
,  // measure 76
0110
0000
0000
0000
;
