#TITLE:girls gone wild;
#SUBTITLE:;
#ARTIST:JT;
#TITLETRANSLIT:;
#SUBTITLETRANSLIT:;
#ARTISTTRANSLIT:;
#GENRE:;
#CREDIT:;
#BANNER:;
#BACKGROUND:;
#LYRICSPATH:;
#CDTITLE:;
#MUSIC:JT - Girls Gone Wild.ogg;
#OFFSET:0.000000;
#SAMPLESTART:100.059883;
#SAMPLELENGTH:12.000000;
#SELECTABLE:YES;
#BPMS:0.000000=164.000000
,384.000000=82.000000
,420.000000=164.000000
;
#STOPS:0.000000=1.000000,
420.000000=2.850000
;
#BGCHANGES:0.000=JT - Girls Gone Wild.mp4=1.000=0=0=1=====,
99999=-nosongbg-=1.000=0=0=0 // don't automatically add -songbackground-
;
#KEYSOUNDS:;
#ATTACKS:;

//---------------dance-single - ----------------
#NOTES:
     dance-single:
     :
     Hard:
     13:
     0.655648,0.936150,0.729717,0.009602,0.098416,956.000000,804.000000,152.000000,2.000000,0.000000,0.000000,0.655648,0.936150,0.729717,0.009602,0.098416,956.000000,804.000000,152.000000,2.000000,0.000000,0.000000:
// measure 0
0000
0000
0000
0000
,  // measure 1
0000
0000
0000
0000
,  // measure 2
0000
0000
0000
0000
,  // measure 3
0000
0000
0000
0000
,  // measure 4
0001
0100
0001
0000
,  // measure 5
0100
0000
0010
0000
0001
0100
0001
1000
,  // measure 6
0110
0001
1000
0001
0100
0010
0001
1000
,  // measure 7
0001
0100
0010
0000
0001
0100
1000
0010
,  // measure 8
0001
1000
0001
0100
0001
1000
0100
0000
,  // measure 9
0100
0010
0001
1000
0001
0100
1000
0000
,  // measure 10
0001
1000
0001
0100
0010
0100
0010
0000
,  // measure 11
0001
1000
0001
0100
0001
0100
1000
0000
,  // measure 12
1001
1000
0001
0100
0010
0001
1000
0000
,  // measure 13
0100
0010
0001
1000
0001
0100
1000
0000
,  // measure 14
0100
0010
0001
1000
0001
0100
0010
0000
,  // measure 15
0100
0010
0001
1000
0001
0100
0010
0000
,  // measure 16
1001
0000
0001
0100
0010
0001
1000
0001
,  // measure 17
0100
0000
0001
0100
0011
0000
1001
0000
,  // measure 18
0100
0000
0001
0100
0001
0000
0100
1000
,  // measure 19
0001
0000
0100
0010
0011
0000
1100
0000
,  // measure 20
0100
0000
0110
0001
1000
0000
0001
0100
,  // measure 21
0010
0000
0100
0001
0100
0000
0100
0000
,  // measure 22
0001
0100
0110
0000
0001
0000
0100
0010
,  // measure 23
0011
1000
0001
0100
1000
0000
0100
0001
,  // measure 24
1000
0010
0001
0100
1010
0000
0001
0100
,  // measure 25
0010
0000
0001
0100
0010
0000
1000
0100
,  // measure 26
0001
0010
0001
1000
0101
0000
0101
0000
,  // measure 27
0110
0101
0110
1001
,  // measure 28
1001
0000
0001
0010
0100
0000
0001
0100
,  // measure 29
0010
0000
0100
1000
0001
0000
0010
0000
,  // measure 30
0001
0100
0001
0100
1001
0000
0101
0000
,  // measure 31
0110
0000
0100
0001
1100
0000
0101
0000
,  // measure 32
0110
0000
1100
0000
0101
0000
0010
0100
,  // measure 33
0011
0110
0101
1100
,  // measure 34
0101
0001
1000
0000
0110
0000
0101
1000
,  // measure 35
0001
0010
0100
0000
1001
0001
0100
0001
,  // measure 36
0100
0000
1000
0010
0001
0100
0011
0001
,  // measure 37
1000
0001
0101
0010
1000
0100
0001
0010
,  // measure 38
0101
0011
0100
1010
,  // measure 39
0110
0101
0101
0000
,  // measure 40
0000
0000
0110
0001
1001
0000
0110
0001
,  // measure 41
1001
0100
0010
0100
0001
0010
0001
0100
,  // measure 42
1000
0000
0001
1000
0110
0000
0001
0100
,  // measure 43
1001
0000
0001
0100
0010
0000
0001
0100
,  // measure 44
1000
0000
0001
0100
0010
0000
0001
0100
,  // measure 45
1000
0000
0001
0100
1000
0000
0010
0100
,  // measure 46
0001
0100
0001
1000
0001
0000
0000
0000
,  // measure 47
0000
0010
0100
0001
1000
0000
1001
0000
,  // measure 48
0101
0000
0100
0010
0001
1000
0001
0100
,  // measure 49
1000
0000
0100
0010
1001
0000
0101
0001
,  // measure 50
1001
0000
0100
0001
1000
0000
0001
1000
,  // measure 51
0100
0000
0010
0100
0011
0000
0101
0000
,  // measure 52
0000
0000
0011
0100
0001
0010
0001
0100
,  // measure 53
1001
0000
0100
0001
1001
0000
0110
0000
,  // measure 54
0101
0001
0101
0000
0100
0000
0001
1000
,  // measure 55
0110
0001
1000
0000
0100
0000
0001
1000
,  // measure 56
0100
0001
0100
0010
1001
0000
0001
0100
,  // measure 57
1000
0000
1000
0001
0110
0000
1001
1001
,  // measure 58
1001
0001
0100
0010
0101
0000
1100
0000
,  // measure 59
0110
0101
0101
0110
,  // measure 60
1001
0000
1000
0100
0001
0000
0001
0100
,  // measure 61
0010
0000
0001
0100
0001
0000
0100
0000
,  // measure 62
0000
0001
0100
1000
0110
0000
0101
0000
,  // measure 63
0101
0000
0010
0001
0100
0000
0010
0000
,  // measure 64
0101
0110
1100
0110
,  // measure 65
0101
0000
0110
0000
0100
0001
1000
0001
,  // measure 66
0100
0000
0110
0000
0001
1000
0100
0001
,  // measure 67
0110
0000
0100
0001
1000
0100
0110
0000
,  // measure 68
0001
0000
0100
0000
1000
0000
0000
0000
0010
0000
0000
0100
0001
0000
1000
0000
,  // measure 69
0100
0000
0010
0000
0100
0001
0000
0000
,  // measure 70
0110
0010
0101
0000
0011
0000
1000
0100
,  // measure 71
0101
0001
0100
0001
0100
1000
0110
0001
,  // measure 72
1000
0100
0001
0100
0001
0000
0100
0010
,  // measure 73
0000
0010
0001
0100
0001
1000
0100
0001
,  // measure 74
0100
0010
0100
0010
0001
0100
1000
0100
,  // measure 75
0010
0001
0100
0001
1000
0100
0000
0000
,  // measure 76
1001
0001
0101
0000
0000
0000
0001
0100
,  // measure 77
0010
0000
0100
0001
1000
0010
0001
0100
,  // measure 78
1100
0010
0100
0001
1000
0001
0110
0000
,  // measure 79
0110
0101
0110
1001
,  // measure 80
0101
0000
0010
0100
0001
1000
0001
0100
,  // measure 81
1000
0000
0010
0100
0001
0000
1001
0001
,  // measure 82
1001
0000
0001
0100
1000
0000
0001
0100
,  // measure 83
0010
0000
0001
1000
0110
0010
1100
0001
,  // measure 84
0010
0000
0110
0010
0100
0000
0001
0100
,  // measure 85
0001
0000
0010
0001
0110
0000
0101
0000
,  // measure 86
0001
1000
0110
0000
0010
0001
0100
0010
,  // measure 87
1100
0001
1000
0000
0100
0000
0001
0010
,  // measure 88
0001
0100
0010
0100
1100
0000
0100
0001
,  // measure 89
0010
0000
0100
0001
0100
0000
1001
0000
,  // measure 90
0000
1000
0001
0100
0110
0000
0101
0000
,  // measure 91
1100
0110
0101
0110
,  // measure 92
1001
0000
0010
0001
0100
0000
1000
0001
,  // measure 93
0100
0000
0010
0001
1000
0000
0100
0000
,  // measure 94
0000
1000
0100
0001
0101
0000
0110
0000
,  // measure 95
0101
0000
0010
0001
0110
0000
1001
0000
,  // measure 96
1001
0000
0000
1001
0010
0100
0001
0000
0110
0000
0000
0110
0001
0100
1000
0000
,  // measure 97
1001
0000
0000
0110
0001
0100
1000
0000
0101
0000
0000
0011
0100
0010
0100
0000
,  // measure 98
1000
0100
0001
0010
0100
0000
0011
0000
1000
0000
0100
0001
0100
0000
0010
0000
,  // measure 99
1000
0100
0001
0000
0100
0001
0001
0100
1000
0000
0001
0100
1000
0000
0001
0000
,  // measure 100
0000
0000
0000
0100
0001
1000
0100
0010
0001
1000
0001
0100
1000
0000
0100
0000
,  // measure 101
0001
0010
0100
0001
1000
0000
0100
0001
1000
0100
0001
0100
0001
1000
0100
0000
,  // measure 102
0001
0000
0100
0001
1000
0001
0010
0100
0001
0000
0000
0100
1000
0000
0001
0000
,  // measure 103
0100
0001
1000
0001
0010
0000
0100
0010
1000
0100
0001
0100
0001
0010
0100
0000
,  // measure 104
0100
1000
0001
0100
0001
0000
0010
0100
0001
0000
0100
0010
0001
0000
0100
0000
,  // measure 105
2000
3000
0001
0100
1000
0010
0001
0100
,  // measure 106
1000
0000
0100
0010
1001
0000
0101
0001
,  // measure 107
0101
0000
0001
0100
1000
0000
0010
0100
,  // measure 108
0100
0000
0001
0100
1010
0000
0110
0001
,  // measure 109
0100
0000
0101
0100
1000
0000
0001
0100
,  // measure 110
1000
0000
0100
0001
0110
0000
1001
0000
,  // measure 111
0100
0010
1001
0000
0100
0000
0010
0100
,  // measure 112
1001
0001
1000
0000
0100
0000
0001
0010
,  // measure 113
0100
0010
0001
0100
1000
0000
0001
0100
,  // measure 114
1000
0000
0001
0100
0010
0000
0001
0000
,  // measure 115
0000
0100
0001
0100
1001
0000
0110
0000
,  // measure 116
0101
1100
0110
0101
,  // measure 117
0110
0000
1000
0100
0001
0000
0010
0100
,  // measure 118
0001
0000
1000
0100
0001
0000
0010
0000
,  // measure 119
0000
0010
0001
0100
1100
0000
0101
0000
,  // measure 120
0110
0000
0010
0001
0100
0000
1000
0000
,  // measure 121
0001
0100
0010
1000
0001
0100
1000
0001
,  // measure 122
1000
0001
0100
0010
0001
0100
0001
0100
,  // measure 123
0010
0001
1000
0001
0100
0010
0001
1000
,  // measure 124
0001
0100
0010
0001
1000
0001
0100
0010
,  // measure 125
0001
1000
0001
0100
0010
0001
0100
0001
,  // measure 126
0100
0010
0001
1000
0001
0100
0010
0001
,  // measure 127
1000
0001
0100
0010
0001
1000
0001
0100
,  // measure 128
0010
0001
1000
0001
0100
0010
0001
1000
,  // measure 129
0200
0000
0000
0000
,  // measure 130
0300
0000
0000
0000
;
