#VERSION:0.83;
#TITLE:girlboss;
#SUBTITLE:;
#ARTIST:Unknown artist;
#TITLETRANSLIT:;
#SUBTITLETRANSLIT:;
#ARTISTTRANSLIT:;
#GENRE:;
#ORIGIN:;
#CREDIT:;
#BANNER:;
#BACKGROUND:;
#PREVIEWVID:;
#JACKET:;
#CDIMAGE:;
#DISCIMAGE:;
#LYRICSPATH:;
#CDTITLE:;
#MUSIC:Sara Landry - GIRLBOSS [Lyrics Visualizer].ogg;
#OFFSET:0.000000;
#SAMPLESTART:100.059883;
#SAMPLELENGTH:12.000000;
#SELECTABLE:YES;
#BPMS:0.000=160.000;
#STOPS:;
#DELAYS:;
#WARPS:;
#TIMESIGNATURES:0.000=4=4;
#TICKCOUNTS:0.000=4;
#COMBOS:0.000=1;
#SPEEDS:0.000=1.000=0.000=0;
#SCROLLS:0.000=1.000;
#FAKES:;
#LABELS:0.000=Song Start;
#BGCHANGES:;
#KEYSOUNDS:;
#ATTACKS:
;

//---------------dance-single - ----------------
#NOTEDATA:;
#CHARTNAME:;
#STEPSTYPE:dance-single;
#DESCRIPTION:;
#CHARTSTYLE:;
#DIFFICULTY:Hard;
#METER:14;
#RADARVALUES:0.658967,0.625055,0.025827,0.061986,0.121389,893.000000,888.000000,5.000000,12.000000,0.000000,0.000000,0.000000,0.000000,0.000000,0.658967,0.625055,0.025827,0.061986,0.121389,893.000000,888.000000,5.000000,12.000000,0.000000,0.000000,0.000000,0.000000,0.000000;
#CREDIT:;
#NOTES:
// measure 0
0000
0000
0000
0000
,  // measure 1
0000
0000
0000
0000
,  // measure 2
0000
0000
0000
0000
,  // measure 3
0000
0000
0000
0000
,  // measure 4
1000
0001
0100
0010
0001
1000
0001
0100
,  // measure 5
0010
0001
1000
0001
0100
0010
0001
1000
,  // measure 6
0001
0100
0010
0001
1000
0001
0100
0010
,  // measure 7
0001
1000
0001
0100
0010
0001
0100
0001
,  // measure 8
0100
0010
0001
1000
0001
0100
0010
0001
,  // measure 9
1000
0001
0100
0010
0001
1000
0001
0100
,  // measure 10
0010
0001
1000
0001
0100
0010
0001
1000
,  // measure 11
0001
0100
0010
0001
1000
0100
0000
0000
,  // measure 12
0001
0100
0010
0001
0100
0001
0100
0010
,  // measure 13
0001
1000
0001
0100
0010
0001
1000
0001
,  // measure 14
0100
0001
0100
0010
0001
1000
0001
0100
,  // measure 15
0010
0001
0100
0010
0001
1000
0001
0100
,  // measure 16
1000
0000
0100
0001
0100
0001
0100
0000
,  // measure 17
0000
0000
0001
1000
0001
0100
0010
0000
,  // measure 18
0000
0000
0010
0001
0100
0100
1000
0000
,  // measure 19
0000
0000
0100
1000
0000
0000
0000
0000
,  // measure 20
1001
0100
0001
0100
0010
0001
1000
0001
,  // measure 21
0100
0010
0001
1000
0001
0100
1000
0100
,  // measure 22
0001
0010
0100
0001
1000
0001
0010
0100
,  // measure 23
0001
1000
0001
0010
0100
0001
1000
0001
,  // measure 24
0010
0100
0001
1000
0001
0010
0100
0010
,  // measure 25
0001
1000
0001
0100
0010
0001
1000
0001
,  // measure 26
0100
0010
0001
1000
0001
0100
0010
0001
,  // measure 27
0100
0001
0100
0010
0001
1000
0001
0100
,  // measure 28
0010
0001
1000
0001
0100
0010
0001
1000
,  // measure 29
0001
0100
0010
0001
1000
0001
0100
0010
,  // measure 30
0001
1000
0001
0100
0010
0001
1000
0001
,  // measure 31
0100
0010
0001
0100
0001
0100
0010
0001
,  // measure 32
1000
0001
0100
0010
0001
1000
0001
0100
,  // measure 33
0010
0001
1000
0001
0100
0010
0001
1000
,  // measure 34
0001
0100
0010
0001
1000
0001
0100
0010
,  // measure 35
2002
0000
0000
3003
,  // measure 36
0100
0010
0001
1000
0001
0100
0001
0000
,  // measure 37
0100
0010
0001
1000
0100
0000
0010
0001
,  // measure 38
0100
0001
1000
0100
0010
0001
1000
0100
,  // measure 39
0010
0001
1000
0001
0100
0010
0001
1000
,  // measure 40
0001
0100
0010
0001
0100
0001
0100
0010
,  // measure 41
0001
1000
0001
0100
0010
0001
1000
0001
,  // measure 42
0100
0010
0001
1000
0001
0100
0010
0001
,  // measure 43
1000
0001
0100
0010
0001
1000
0001
0100
,  // measure 44
0010
0001
1000
0001
0100
0010
0001
1000
,  // measure 45
0001
0100
0010
0001
1000
0001
0100
0010
,  // measure 46
0001
1000
0001
0100
0010
0001
1000
0001
,  // measure 47
0100
0010
0001
1000
0001
0100
0010
0001
,  // measure 48
1000
0001
0100
0010
0001
1000
0001
0100
,  // measure 49
0010
0001
1000
0001
0100
0010
0001
1000
,  // measure 50
0100
0001
0100
0010
1001
0000
0101
0010
,  // measure 51
0001
0100
1000
0001
0000
0010
0001
0010
,  // measure 52
0100
0100
0010
0001
1000
0001
0100
0010
,  // measure 53
0001
0100
0001
0100
0010
0001
1000
0001
,  // measure 54
0100
0010
0001
0100
0001
0100
0010
0001
,  // measure 55
1000
0001
0100
0010
0001
1000
0001
0100
,  // measure 56
0010
0001
0100
0001
0100
0010
0001
1000
,  // measure 57
0001
0100
0010
0001
1000
0001
0100
0010
,  // measure 58
0001
1000
0001
0100
0010
0001
1000
0001
,  // measure 59
0100
0010
0001
0100
1000
0001
0100
0000
,  // measure 60
0000
0001
0000
0100
0000
1000
0000
0001
,  // measure 61
0000
0100
0000
0010
0000
0001
1000
0100
,  // measure 62
0000
1000
0000
0001
0000
0100
0000
0010
,  // measure 63
0000
0001
0000
0100
0000
0010
0001
0100
,  // measure 64
2000
0000
0000
0000
3000
0000
0000
0200
,  // measure 65
0000
0000
0000
0000
0000
0300
0000
0020
,  // measure 66
0000
0000
0000
0030
0000
0002
0000
0000
,  // measure 67
0000
0000
0000
0000
0000
0000
0003
0000
0010
0000
1000
0000
0001
0010
0100
0000
,  // measure 68
0100
0010
0001
1000
0001
0100
0010
0001
,  // measure 69
0100
0001
0100
0010
0001
1000
0001
0100
,  // measure 70
0010
0001
0100
0001
0100
0010
0001
1000
,  // measure 71
0001
0100
0010
0001
1000
0001
0100
0010
,  // measure 72
0001
1000
0001
0100
0010
0001
1000
0001
,  // measure 73
0100
0010
0001
1000
0001
0100
0010
0001
,  // measure 74
1000
0001
0100
0010
0001
1000
0001
0100
,  // measure 75
0010
0001
0100
0001
0100
1000
0000
0100
,  // measure 76
0010
0001
1000
0001
0100
1000
0000
0100
,  // measure 77
0010
0001
1000
0001
0100
0010
0000
0100
,  // measure 78
0001
0010
0100
0001
1000
0001
0000
0100
,  // measure 79
0010
0001
1000
0001
0100
1000
0000
0100
,  // measure 80
0010
0001
1000
0001
0100
1000
0000
0100
,  // measure 81
0010
0001
1000
0001
0100
1000
0000
0000
,  // measure 82
0001
1000
0001
0100
1000
0000
0101
0100
,  // measure 83
0010
0001
1000
0001
0100
1000
0000
0000
,  // measure 84
0010
0000
0000
0001
0000
0000
0010
0000
0000
0000
0000
0000
0100
0000
0000
0000
,  // measure 85
0001
0000
0000
0100
0000
0000
0010
0000
0000
0000
0100
0000
0001
0000
0000
0000
,  // measure 86
0100
0000
0000
0010
0000
0000
0001
0000
0000
0100
1000
0001
0000
0000
0000
0010
,  // measure 87
0100
0000
0000
0001
0000
0000
0010
0000
0000
0000
0001
0000
0100
0000
1000
0000
,  // measure 88
0001
0000
0000
0100
0000
0000
0010
0000
0000
0001
0000
0000
1000
0000
0000
0001
,  // measure 89
0010
0000
0000
0001
0000
0000
0100
0000
0000
0010
0000
0000
0001
0000
0000
0010
,  // measure 90
0200
0000
0000
0000
0000
0020
0000
0000
,  // measure 91
0000
0000
0000
0000
0000
0000
0000
0330
,  // measure 92
0001
0000
0010
0000
0100
0000
0001
0000
1000
0000
0001
0000
0100
0000
1000
0001
,  // measure 93
0010
0000
0100
0000
0001
0000
1000
0000
0100
0000
0001
0000
0010
0000
0100
0001
,  // measure 94
1000
0000
0010
0000
0001
0000
1000
0000
0001
0000
0100
0000
0010
0000
0001
1000
,  // measure 95
0100
0000
0001
0000
0100
0000
1000
0000
0001
0000
0100
0000
0010
0000
0001
1000
,  // measure 96
0100
0000
0001
0000
0100
0000
1000
0000
0001
0000
0100
0000
0010
0000
0001
0100
,  // measure 97
1000
0000
0100
0000
0100
0000
0010
0000
0001
0000
0100
0000
0010
0000
0001
0100
,  // measure 98
1000
0000
0001
0000
0100
0000
0010
0000
0001
0000
0100
0000
0010
0000
0001
0100
,  // measure 99
1000
0000
0001
0000
0100
0000
0010
0000
0001
0000
0100
0000
0010
0000
0001
0100
,  // measure 100
1000
0000
0010
0000
0100
0000
0001
0000
1000
0000
0100
0000
0001
0000
0010
0100
,  // measure 101
0001
0000
1000
0000
0100
0000
0001
0000
0010
0000
0100
0000
0001
0000
0010
0100
,  // measure 102
0001
0000
1000
0000
0100
0000
0001
0000
0010
0000
0100
0000
0001
0000
0010
0100
,  // measure 103
0001
0000
0010
0000
0100
0000
0001
0000
1000
0000
0100
0000
0001
0000
0010
0100
,  // measure 104
0001
0000
0010
0000
0100
0000
1000
0000
0001
0000
0100
0000
0010
0000
0001
0100
,  // measure 105
1000
0000
0010
0000
0001
0000
1000
0000
0100
0000
0010
0000
0001
0000
0010
0100
,  // measure 106
0001
0000
0100
0000
0010
0000
0001
0000
0100
0000
1000
0000
0001
0000
0010
0100
,  // measure 107
0001
0000
0000
0100
0000
0000
0010
0000
0000
0001
0000
0000
0100
0000
0000
0000
,  // measure 108
0010
0000
0001
0000
0100
0000
1000
0000
0001
0000
0100
0000
0010
0000
0001
0100
,  // measure 109
1000
0000
0001
0000
0100
0000
0010
0000
0001
0000
0100
0000
0010
0000
0001
0100
,  // measure 110
1000
0000
0010
0000
0100
0000
0001
0000
1000
0000
0100
0000
0001
0000
0010
0100
,  // measure 111
0001
0000
0010
0000
0100
0000
1000
0000
0001
0000
0100
0000
0010
0000
0001
0100
,  // measure 112
1000
0000
0001
0000
0100
0000
1000
0000
0001
0000
0100
0000
0010
0000
0001
0100
,  // measure 113
1000
0000
0001
0000
0100
0000
1000
0000
0001
0000
0100
0000
0010
0000
0001
0100
,  // measure 114
1000
0000
0001
0000
0100
0000
1000
0000
0001
0000
0100
0000
0010
0000
0100
0001
,  // measure 115
0010
0000
0001
0000
0100
0000
1000
0000
0001
0000
0100
0000
0010
0000
0001
0100
,  // measure 116
1000
0000
0001
0000
0100
0000
0010
0000
0001
0000
0100
0000
1000
0000
0001
0100
,  // measure 117
0010
0000
0001
0000
0100
0000
1000
0000
0001
0000
0100
0000
0010
0000
0001
0100
,  // measure 118
1000
0000
0001
0000
0100
0000
0010
0000
0001
0000
0100
0000
1000
0000
0001
0100
,  // measure 119
0010
0000
0001
0000
0100
0000
1000
0000
0001
0000
0100
0000
0010
0000
0001
0100
,  // measure 120
1000
0000
0001
0000
0100
0000
0010
0000
0001
0000
0100
0000
1000
0000
0001
0100
,  // measure 121
0010
0000
0001
0000
0100
0000
0010
0000
0001
0000
0100
0000
1000
0000
0100
0010
,  // measure 122
0001
0000
0100
0000
0010
0000
0001
0000
0100
0000
1000
0000
0001
0000
0010
0100
,  // measure 123
0001
0000
1000
0000
0001
0000
0100
0000
0010
0000
0001
0000
0100
0000
1000
0001
,  // measure 124
0200
0000
0300
0020
,  // measure 125
0000
0000
0000
0000
0000
0000
0030
2000
,  // measure 126
0000
0000
0000
0000
3000
0200
0000
0000
,  // measure 127
0000
0000
0000
0300
0000
0000
0000
0000
;
