#VERSION:0.83;
#TITLE:full frontal;
#SUBTITLE:;
#ARTIST:Ashnikko;
#TITLETRANSLIT:;
#SUBTITLETRANSLIT:;
#ARTISTTRANSLIT:;
#GENRE:;
#ORIGIN:;
#CREDIT:;
#BANNER:;
#BACKGROUND:;
#PREVIEWVID:;
#JACKET:;
#CDIMAGE:;
#DISCIMAGE:;
#LYRICSPATH:;
#CDTITLE:;
#MUSIC:Ashnikko - Full Frontal (Official Visualiser).mp3;
#OFFSET:0.000000;
#SAMPLESTART:100.059883;
#SAMPLELENGTH:12.000000;
#SELECTABLE:YES;
#BPMS:0.000=123.000;
#STOPS:0.000=0.200,
56.000=1.900,
108.000=1.900,
120.000=2.000,
144.000=1.900;
#DELAYS:;
#WARPS:;
#TIMESIGNATURES:0.000=4=4;
#TICKCOUNTS:0.000=4;
#COMBOS:0.000=1;
#SPEEDS:0.000=1.000=0.000=0;
#SCROLLS:0.000=1.000;
#FAKES:;
#LABELS:0.000=Song Start;
#BGCHANGES:;
#KEYSOUNDS:;
#ATTACKS:
;

//---------------dance-single - ----------------
#NOTEDATA:;
#CHARTNAME:;
#STEPSTYPE:dance-single;
#DESCRIPTION:;
#CHARTSTYLE:;
#DIFFICULTY:Hard;
#METER:12;
#RADARVALUES:0.454421,0.625198,0.075573,0.096184,0.381302,463.000000,452.000000,11.000000,14.000000,0.000000,0.000000,0.000000,0.000000,0.000000,0.454421,0.625198,0.075573,0.096184,0.381302,463.000000,452.000000,11.000000,14.000000,0.000000,0.000000,0.000000,0.000000,0.000000;
#CREDIT:;
#NOTES:
// measure 0
0000
0000
0000
0000
,  // measure 1
0000
0000
0000
0000
,  // measure 2
0000
0000
0000
0000
,  // measure 3
0000
0000
0000
0000
,  // measure 4
1000
0100
0001
0010
0100
0000
0001
0000
0010
0000
0000
0000
0010
0000
1000
0100
,  // measure 5
0001
0010
0001
1000
0001
0100
1000
0000
,  // measure 6
0100
0001
1000
0100
0001
0000
1000
0000
0100
0000
0100
0000
0010
0000
0100
0010
,  // measure 7
0001
0010
0001
0100
1000
0010
0100
0001
1000
0000
0100
0000
0010
0000
0000
0000
,  // measure 8
0010
0000
0100
0000
0001
0000
0010
0000
0100
0000
0010
0000
1000
0000
0100
0001
,  // measure 9
0010
1000
0001
0100
0010
0010
0010
0001
,  // measure 10
0010
0000
0001
0000
1000
0000
0001
0000
0100
0000
0010
0000
1000
0000
0100
0001
,  // measure 11
0010
0100
0001
1000
0001
0010
0100
0001
0010
0000
0001
0000
1000
0000
0000
0000
,  // measure 12
0220
0000
0000
0000
,  // measure 13
0000
0000
0000
0330
,  // measure 14
0000
0000
0000
0001
0000
0010
0100
0000
1000
0000
0100
0000
0000
0000
0000
0000
,  // measure 15
1000
0000
0000
0001
0000
0100
0010
0000
0001
0000
0100
0000
1000
0000
0000
0000
,  // measure 16
0100
0000
0000
0001
0000
0100
0010
0000
2002
0000
0000
0000
3003
0000
0000
0000
,  // measure 17
0100
0000
0000
0001
0000
0010
0100
0000
0001
0000
1000
0000
0100
0000
0000
0000
,  // measure 18
0100
0000
0000
0001
0000
0010
0100
0000
0001
0000
1000
0000
0220
0000
0330
0000
,  // measure 19
0001
0000
0000
1000
0000
0001
0010
0000
0100
0000
0001
0000
1000
0000
0000
0000
,  // measure 20
0100
0001
0000
1000
0000
0100
0001
0000
2002
0000
0000
0000
3003
0000
0000
0000
,  // measure 21
0010
0000
0000
0001
0000
0010
0100
0000
0001
0000
0100
0000
1000
0000
0000
0000
,  // measure 22
0100
0000
0000
0001
1000
0000
0000
0100
0001
0000
0000
0010
0100
0000
0000
0001
,  // measure 23
1000
0000
0000
0001
0100
0000
0000
0010
1000
0000
0100
0001
0010
0000
0000
0000
,  // measure 24
1000
0100
0000
0000
0001
0010
0000
0000
0100
0001
0000
0000
1000
0100
0001
1000
,  // measure 25
0010
0100
0000
0000
0001
0000
1000
0000
0001
0000
0100
0000
1000
0000
0100
0000
,  // measure 26
0020
0000
0000
0000
0000
0000
0000
0000
0000
0000
0000
0000
0030
0000
1000
0100
,  // measure 27
0001
0000
0000
0000
1000
0001
0000
0000
0010
0100
0000
0000
0001
1000
0010
0100
,  // measure 28
0001
0010
0000
0000
0100
0001
0000
0000
1000
0000
0100
0000
0001
0000
0010
0000
,  // measure 29
0002
0000
0000
0003
,  // measure 30
0000
0000
0000
0000
1000
0000
0100
0000
0000
0000
0000
0000
0001
0000
0010
0001
,  // measure 31
0100
0000
0010
0000
0100
0000
1000
0000
0001
0000
0100
0000
1000
0000
0001
0100
,  // measure 32
0010
0100
0001
1000
0001
0000
1000
0000
0001
0000
0100
0000
0010
0000
0100
0001
,  // measure 33
1000
0100
0001
1000
0001
0010
0100
0001
0010
0000
0001
0000
1000
0000
0000
0000
,  // measure 34
2002
0000
0000
0000
,  // measure 35
0000
0000
0000
3003
,  // measure 36
0000
0000
0000
0100
0000
0001
1000
0000
0010
0000
0100
0000
0000
0000
0000
0000
,  // measure 37
0010
0000
0000
0001
0000
1000
0100
0000
0001
0000
0010
0000
0100
0000
0000
0000
,  // measure 38
0010
0000
0000
0001
0000
0010
0100
0000
2002
0000
0000
0000
3003
0000
0000
0000
,  // measure 39
1000
0000
0000
0001
0000
0010
0100
0000
0001
0000
1000
0000
0100
0000
0000
0000
,  // measure 40
0010
0000
0000
0100
0000
0001
1000
0000
0100
0000
0010
0000
0100
0000
0000
0000
,  // measure 41
1000
0000
0000
0001
0000
0100
0010
0000
0001
0000
0100
0000
1000
0000
0000
0000
,  // measure 42
0100
0001
0000
1000
0000
0100
0001
0000
1000
0000
0100
0000
0001
0000
0000
0000
,  // measure 43
0100
0000
0000
0001
0000
1000
0100
0000
0001
0000
0010
0000
0100
0000
0000
0000
,  // measure 44
0100
0010
0001
1000
,  // measure 45
0001
0100
0010
0001
,  // measure 46
0100
0001
0100
0010
,  // measure 47
0001
1000
0001
0100
,  // measure 48
0010
0001
1000
0001
,  // measure 49
0100
0010
0001
1000
,  // measure 50
0001
0100
0010
0001
,  // measure 51
0000
0000
0000
0000
,  // measure 52
1000
0000
0000
0100
0000
0001
1000
0000
0100
0000
0001
0000
0010
0000
0100
0001
,  // measure 53
1000
0000
0100
0000
0001
0000
0000
1000
0100
0000
0001
0000
0010
0000
0000
0000
,  // measure 54
0010
0000
0000
1000
0000
0100
0001
0000
0100
0000
1000
0000
0001
0000
0010
0100
,  // measure 55
0010
0000
1000
0000
0100
0000
0000
0001
0010
0000
0100
0000
1000
0000
0000
0000
,  // measure 56
1000
0000
0000
0001
0000
0010
0100
0000
0001
0000
1000
0000
0100
0000
0001
0010
,  // measure 57
0100
0000
0001
0000
1000
0000
0000
0010
0100
0000
0001
0000
1000
0000
0100
0000
,  // measure 58
0001
0000
0000
0010
0000
0100
0001
0000
1000
0000
0100
0000
0000
0000
0001
0010
,  // measure 59
0100
0000
0001
0000
0010
0000
0000
0100
0001
0000
1000
0000
0100
0000
0000
0000
,  // measure 60
0010
0100
0001
1000
0001
0000
0010
0000
0001
0000
0000
0000
0001
0000
1000
0001
,  // measure 61
0100
0001
0100
0010
0001
0100
1000
0000
,  // measure 62
0100
0001
1000
0100
0001
0000
0010
0000
0001
0000
0000
0000
1000
0000
0100
0010
,  // measure 63
0001
0001
1000
0100
0010
0001
0100
0001
0010
0000
0001
0000
1000
0000
0000
0000
,  // measure 64
1001
0010
0100
0001
1000
1000
0001
0100
,  // measure 65
0010
0000
0001
0000
1000
0000
0000
0000
1001
0000
1001
0000
1001
0000
0100
0001
,  // measure 66
0010
0000
0001
0000
0100
0000
0010
0000
0001
0000
1000
0000
0001
0000
0100
0010
,  // measure 67
1000
0001
0100
0001
1000
0001
0010
0100
0001
0000
0010
0000
0100
0000
0010
0000
,  // measure 68
1001
0001
0000
0100
1000
0000
0010
0001
,  // measure 69
0000
0010
0001
0000
1000
0001
0000
0010
,  // measure 70
0100
0000
0000
0000
;
