#TITLE:freak it;
#SUBTITLE:;
#ARTIST:Kim Petras;
#TITLETRANSLIT:;
#SUBTITLETRANSLIT:;
#ARTISTTRANSLIT:;
#GENRE:;
#CREDIT:;
#BANNER:;
#BACKGROUND:;
#LYRICSPATH:;
#CDTITLE:;
#MUSIC:Kim Petras - Freak It (Official Visualizer).mp3;
#OFFSET:0.000000;
#SAMPLESTART:100.059883;
#SAMPLELENGTH:12.000000;
#SELECTABLE:YES;
#BPMS:0.000000=134.000000
;
#STOPS:0.000000=0.400000
;
#BGCHANGES:;
#KEYSOUNDS:;
#ATTACKS:;

//---------------dance-single - ----------------
#NOTES:
     dance-single:
     :
     Hard:
     12:
     0.491133,0.742265,0.156515,0.113338,0.232074,637.000000,608.000000,29.000000,21.000000,0.000000,0.000000,0.491133,0.742265,0.156515,0.113338,0.232074,637.000000,608.000000,29.000000,21.000000,0.000000,0.000000:
// measure 0
0000
0000
0000
0000
,  // measure 1
0000
0000
0000
0000
,  // measure 2
1000
0000
0000
0001
0000
0000
0010
0000
0100
0000
0000
0000
1000
0000
0100
0000
,  // measure 3
0011
0000
0000
0000
0101
0000
0000
0000
0100
0000
0000
0001
0000
0000
1000
0000
,  // measure 4
0100
0010
0100
0010
0100
0010
0100
0010
0100
0010
0100
0010
0100
0000
0001
0000
,  // measure 5
0101
0000
0110
0000
0100
0001
1000
0001
,  // measure 6
0010
0000
0000
1000
0000
0000
0100
0000
0000
0000
0000
0000
0010
0000
0100
0000
,  // measure 7
0101
0000
0110
0000
0001
0100
1000
0001
,  // measure 8
0100
0000
0010
0000
0000
0000
0001
0000
1000
0001
1000
0001
1000
0000
0010
0000
,  // measure 9
0110
0000
1001
0000
0010
0100
0001
1000
,  // measure 10
0001
0000
0000
1000
0000
0000
0100
0000
0000
0000
0000
0000
0010
0000
0001
0000
,  // measure 11
0020
0000
0030
0200
0000
0300
0002
0000
,  // measure 12
0003
0000
0020
0000
0000
0000
0030
0000
0001
1000
0001
1000
0001
0000
1000
0000
,  // measure 13
0110
0000
1001
0000
0010
0100
0001
1000
,  // measure 14
0001
0000
0000
0100
0000
0000
0010
0000
0000
0000
0000
0000
0010
0000
0001
0000
,  // measure 15
0101
0000
1001
0000
0001
1000
0001
0100
,  // measure 16
0010
0000
0000
0001
0000
0000
0100
0000
0010
0100
0010
0100
0010
0000
0001
0000
,  // measure 17
1001
0000
0101
0000
0100
0010
0001
0100
,  // measure 18
1000
0000
0000
0010
0000
0000
0001
0000
0000
0000
0001
0000
0100
0000
1000
0000
,  // measure 19
0200
0000
0300
0020
0000
0030
0002
0000
,  // measure 20
0003
2000
0000
3000
0100
0000
0001
0000
,  // measure 21
1000
0000
0000
0001
0000
0000
0010
0000
0200
0000
0000
0000
0002
0000
0000
0000
,  // measure 22
0000
0000
0303
0000
0100
0001
1000
0000
,  // measure 23
0001
0000
0000
0100
0000
0000
0010
0000
1000
0000
0000
0001
0000
0000
0000
0000
,  // measure 24
0000
0000
0100
0001
1000
0100
0001
0000
,  // measure 25
1000
0000
0000
0001
0000
0000
0010
0000
0100
0000
0001
0000
2000
0000
0000
0000
,  // measure 26
0000
3000
0001
0100
0001
0010
0100
0000
,  // measure 27
0010
0001
0100
1000
0000
0000
0010
0001
,  // measure 28
0100
1000
0000
0100
0002
0000
0003
0000
,  // measure 29
0110
0000
0000
0010
0000
0000
0001
0000
0200
0000
0000
0000
2000
0000
0000
0000
,  // measure 30
3300
0000
0100
0001
0000
0000
0100
0000
,  // measure 31
0010
0000
0001
1000
0100
0000
0001
0000
,  // measure 32
0000
0000
0010
0100
0001
1000
0100
0000
,  // measure 33
0100
0000
0000
0001
0000
0000
0001
0000
0010
0000
0100
0000
0001
0000
0000
0000
,  // measure 34
0000
0000
0001
0100
1000
0001
0010
0000
,  // measure 35
0010
0001
0100
1000
0000
0000
0010
0001
,  // measure 36
0100
1000
0000
0100
0001
0100
0001
0100
,  // measure 37
0001
0100
0001
0100
0001
0000
0100
0001
,  // measure 38
1100
0000
0000
0000
0101
0000
0000
0000
0010
0000
0100
0000
0000
0001
0000
0000
,  // measure 39
1000
0000
0000
0010
0000
0000
0001
0000
0000
0000
0000
0000
0100
0000
0001
0000
,  // measure 40
0011
0000
0000
0000
1001
0000
0000
0000
0000
0000
0010
0000
0000
0100
0000
0000
,  // measure 41
0001
0000
0000
1000
0000
0000
0100
0000
0001
0010
0001
0010
0001
0000
0010
0000
,  // measure 42
0110
0000
0101
0000
0001
1000
0001
0100
,  // measure 43
0010
0000
0000
0001
0000
0000
0100
0000
0000
0000
0000
0000
1000
0000
0100
0000
,  // measure 44
0101
0000
0110
0000
1000
0100
0001
0010
,  // measure 45
0100
0000
0000
0001
0000
0000
0100
0000
0010
0100
0010
0100
0010
0000
0000
0000
,  // measure 46
1001
0000
0110
0000
0010
0001
1000
0001
,  // measure 47
0100
0000
0000
0010
0000
0000
0001
0000
0000
0000
0000
0000
0100
0000
0001
0000
,  // measure 48
0200
0000
0300
0020
0000
0030
0002
0000
,  // measure 49
0003
0000
0200
0000
0000
0000
0300
0000
0001
1000
0001
1000
0001
0000
0100
0000
,  // measure 50
0001
0100
0010
0001
1000
0001
0200
0000
,  // measure 51
0300
0000
0000
0000
1000
0000
0100
0000
0001
0100
0010
0001
0100
0000
0100
0000
,  // measure 52
0010
0001
0100
0010
0001
0100
1000
0000
,  // measure 53
0000
0000
0001
0000
0100
0000
0010
0000
1000
0010
1000
0001
1000
0000
0100
0000
,  // measure 54
0001
0010
0000
0000
1000
0100
0000
0000
0001
0100
0000
0000
0010
0000
0100
0000
,  // measure 55
0001
0000
0100
0010
1000
0000
0100
0010
,  // measure 56
0001
1000
0100
0001
0010
0000
0001
0100
,  // measure 57
1000
0000
0000
0010
0000
0000
0100
0000
0000
0000
0001
0000
1000
0000
0100
0000
,  // measure 58
0010
0000
0000
0100
0000
0000
0001
0000
0000
0000
1000
0000
0000
0100
0000
0000
,  // measure 59
0010
0000
0100
0000
0000
0000
1000
0100
,  // measure 60
0001
0001
1000
0001
0100
0010
0001
0100
,  // measure 61
1000
0000
0000
0010
0000
0000
0001
0000
0000
0000
0000
0000
1001
0000
0000
0000
,  // measure 62
0010
0000
0000
0100
0000
0000
0001
0000
0000
1000
0000
0000
0100
0000
0000
0001
,  // measure 63
0010
0000
0000
0000
0100
0000
0000
0000
1000
0001
1000
0001
1000
0000
0001
0000
,  // measure 64
0010
0100
0010
0001
1000
0001
0100
0010
,  // measure 65
0100
0000
0000
0001
0000
0000
0010
0000
0000
0000
0000
0000
0000
0000
0000
0000
,  // measure 66
1100
0100
0001
0010
,  // measure 67
0100
0000
0010
0000
0001
0100
1000
0000
,  // measure 68
0001
0100
0010
1000
,  // measure 69
0001
0000
0100
0010
0001
0100
1000
0000
,  // measure 70
0001
0000
0100
0010
0001
0100
1000
0000
,  // measure 71
0100
0000
0010
0001
0100
0000
0010
0000
,  // measure 72
0010
0001
0100
1000
0010
0000
0100
0001
,  // measure 73
1000
0001
0010
0001
0100
0000
0010
0000
,  // measure 74
0101
0001
0100
1000
,  // measure 75
0010
0000
0100
0001
0010
0000
0001
0000
,  // measure 76
0100
1000
0010
0001
,  // measure 77
0100
0000
0010
0000
1000
0100
0001
0000
,  // measure 78
0001
0000
0100
0010
0100
0001
0010
0000
,  // measure 79
0010
0000
0001
0100
1000
0100
0001
0000
,  // measure 80
0010
0100
0001
1000
0001
0000
0010
0100
,  // measure 81
0001
1000
0001
0000
0010
0000
0100
0000
,  // measure 82
0001
1000
0001
1000
0001
0010
0001
0100
,  // measure 83
0010
0001
1000
0001
0100
0010
0001
1000
,  // measure 84
0001
0100
0010
0001
1000
0001
0100
0010
,  // measure 85
1000
0001
1000
0001
1000
0001
1000
0001
1000
0000
0001
0000
1001
0000
0000
0000
,  // measure 86
0200
0000
0000
0000
,  // measure 87
0000
0000
0000
0000
0000
0000
0000
0000
0300
0000
0100
0001
0100
0000
0010
0000
,  // measure 88
0002
0000
0000
0000
,  // measure 89
0000
0000
0000
0000
0003
0010
0100
0001
,  // measure 90
1000
0000
0100
0000
0010
0000
0001
0100
,  // measure 91
1000
0000
0000
0000
0010
0000
0001
0000
0100
0010
0100
0010
0100
0010
0100
0010
,  // measure 92
0100
0000
0001
0000
0100
0000
1000
0100
1000
0100
1000
0100
1000
0000
0100
0000
,  // measure 93
0001
0000
0100
0010
0100
0010
0100
0010
0100
0000
0000
0000
0010
0000
0100
0000
,  // measure 94
0010
0001
0100
1000
0000
0100
0000
0010
,  // measure 95
0000
0001
0000
0100
0001
0010
0100
0001
,  // measure 96
0010
0001
0100
1000
0000
0100
0000
0001
,  // measure 97
0010
0100
0010
0001
1000
0100
0001
0010
0100
0001
1000
0001
0010
0000
0100
0000
,  // measure 98
0010
0001
0100
1000
0000
0100
0000
0001
,  // measure 99
0000
0000
0010
0000
0000
0000
0100
0000
0001
1000
0001
0010
0100
0000
0001
0000
,  // measure 100
0001
0000
0000
1000
0000
0000
0100
0000
0000
0100
0000
0000
0001
0000
0000
0010
,  // measure 101
0100
0001
0100
0010
0001
1000
0001
0100
0010
0001
0100
0000
1000
0000
0001
0000
;
