#VERSION:0.83;
#TITLE:folded;
#SUBTITLE:;
#ARTIST:Kehlani;
#TITLETRANSLIT:;
#SUBTITLETRANSLIT:;
#ARTISTTRANSLIT:;
#GENRE:;
#ORIGIN:;
#CREDIT:;
#BANNER:;
#BACKGROUND:;
#PREVIEWVID:;
#JACKET:;
#CDIMAGE:;
#DISCIMAGE:;
#LYRICSPATH:;
#CDTITLE:;
#MUSIC:Kehlani - Folded (Lyrics).ogg;
#OFFSET:0.000000;
#SAMPLESTART:100.059883;
#SAMPLELENGTH:12.000000;
#SELECTABLE:YES;
#BPMS:0.000=136.000;
#STOPS:0.000=0.700;
#DELAYS:;
#WARPS:;
#TIMESIGNATURES:0.000=4=4;
#TICKCOUNTS:0.000=4;
#COMBOS:0.000=1;
#SPEEDS:0.000=1.000=0.000=0;
#SCROLLS:0.000=1.000;
#FAKES:;
#LABELS:0.000=Song Start;
#BGCHANGES:;
#KEYSOUNDS:;
#ATTACKS:
;

//---------------dance-single - ----------------
#NOTEDATA:;
#CHARTNAME:;
#STEPSTYPE:dance-single;
#DESCRIPTION:;
#CHARTSTYLE:;
#DIFFICULTY:Hard;
#METER:12;
#RADARVALUES:0.526883,0.687075,0.000000,0.096505,0.037763,879.000000,879.000000,0.000000,23.000000,0.000000,0.000000,0.000000,0.000000,0.000000,0.526883,0.687075,0.000000,0.096505,0.037763,879.000000,879.000000,0.000000,23.000000,0.000000,0.000000,0.000000,0.000000,0.000000;
#CREDIT:;
#NOTES:
// measure 0
0000
0000
0000
0000
,  // measure 1
0000
0000
0000
0000
,  // measure 2
0000
0000
0000
0000
,  // measure 3
0000
0000
0000
0000
,  // measure 4
0000
0000
0000
0000
,  // measure 5
0100
0010
0001
1000
,  // measure 6
0001
0100
0001
0100
,  // measure 7
0001
1000
0100
0010
,  // measure 8
0002
0000
0000
0003
,  // measure 9
0010
0001
0100
0001
0100
0010
0001
1000
,  // measure 10
0001
0100
0010
0001
0100
0001
0100
0010
,  // measure 11
0001
1000
0001
0100
0010
0001
0100
0001
,  // measure 12
0100
0010
0001
1000
0001
0100
0010
0001
,  // measure 13
1000
0001
0100
0010
0001
1000
0001
0100
,  // measure 14
0010
0001
0100
0001
0100
0010
0001
1000
,  // measure 15
0001
0100
0010
0001
1000
0001
0100
0010
,  // measure 16
0100
0001
0100
0010
0001
1000
0001
0100
0010
0001
1000
0001
0100
0010
0001
0100
,  // measure 17
1000
0000
0100
0001
1000
0001
0010
0100
,  // measure 18
0000
1000
1000
0000
0010
0001
1000
0100
,  // measure 19
0000
0001
0100
0000
0020
0000
0000
0000
,  // measure 20
0000
0000
0000
0000
0030
0000
1000
0100
,  // measure 21
0002
0000
0003
0000
0100
0001
1000
0100
,  // measure 22
0000
0001
0100
0010
0100
0010
0001
1000
,  // measure 23
0000
0100
0002
0000
0000
0000
0000
0000
,  // measure 24
0003
0010
0010
0001
1000
0001
0100
0010
,  // measure 25
0001
0100
0020
0000
,  // measure 26
0030
0000
0100
0010
0001
0010
0100
0010
,  // measure 27
0001
0100
0020
0000
,  // measure 28
0000
0000
0030
0001
0100
0010
0001
0100
,  // measure 29
1000
0100
0020
0000
,  // measure 30
0000
0000
0030
0001
0100
0001
0010
0100
,  // measure 31
0001
0000
0100
0000
0000
0010
0001
0100
,  // measure 32
1000
0001
0100
0100
,  // measure 33
1000
0100
0010
0001
1000
0001
0100
0010
,  // measure 34
0001
1000
0001
0100
0010
0001
1000
0001
,  // measure 35
0100
0010
0001
1000
0001
0100
0010
0001
,  // measure 36
1000
0001
0100
0010
0001
1000
0001
0100
,  // measure 37
0010
0001
0100
0010
0001
1000
0001
0100
,  // measure 38
0010
0001
0100
1000
0001
0100
0010
0001
,  // measure 39
1000
0001
0100
0010
0001
1000
0001
0100
,  // measure 40
0010
0001
1000
0001
0100
0010
0001
0100
,  // measure 41
0001
0100
0010
0001
1000
0001
0100
0010
,  // measure 42
0001
1000
0001
0100
0010
0001
1000
0001
,  // measure 43
0100
0010
0001
0100
0001
0100
1000
1000
,  // measure 44
0100
0010
1000
0100
0010
0001
1000
0001
,  // measure 45
0100
0010
0001
0100
1000
0100
0010
0100
,  // measure 46
0100
0010
0100
1000
0001
0100
0010
0001
,  // measure 47
0100
0001
0100
0010
0001
1000
0001
0100
,  // measure 48
0010
0001
0100
1000
0001
0100
0010
1000
,  // measure 49
0100
0001
1000
0100
0010
0100
0001
0010
,  // measure 50
0001
0100
0010
0001
1000
0001
0100
0010
,  // measure 51
0001
1000
0001
0100
0010
0001
1000
0001
,  // measure 52
0100
0010
0001
0100
0001
0100
0010
0001
,  // measure 53
1000
0001
0100
0010
0001
1000
0001
0100
,  // measure 54
0010
0001
1000
0001
0100
0010
0001
1000
,  // measure 55
0001
0100
0010
0001
0100
1000
0001
0100
,  // measure 56
0010
0001
1000
0001
0100
0010
0001
1000
,  // measure 57
0001
0100
0010
0001
1000
0001
0100
0010
,  // measure 58
0100
0001
0100
0010
0001
1000
0001
0100
0010
0001
1000
0001
0100
0010
0001
0100
,  // measure 59
1000
0000
0010
0000
0001
0100
0001
0100
,  // measure 60
1000
0100
0001
0010
0001
0100
1000
0200
,  // measure 61
0000
0000
0300
0010
0002
0000
0000
0000
,  // measure 62
0000
0000
0000
0000
0003
1000
0100
0001
,  // measure 63
0001
0000
0100
0000
0010
0000
0001
0100
,  // measure 64
1000
0000
0000
0000
0100
0000
0001
0000
0000
0010
0000
0000
0000
0000
0001
0000
,  // measure 65
0000
1000
0000
0000
0000
0000
0000
0000
0200
0000
0000
0000
0300
0000
0001
0000
,  // measure 66
2000
0000
0000
0000
3000
1000
0100
0001
,  // measure 67
0010
0001
1000
0100
0010
0001
0100
0010
,  // measure 68
0001
1000
0001
0100
1000
0000
0100
0000
,  // measure 69
0010
0001
0100
0001
0100
0010
0001
1000
,  // measure 70
0001
0100
0010
0001
1000
0000
0100
0000
,  // measure 71
0010
0001
1000
0001
0100
0010
0001
1000
,  // measure 72
0001
0100
0010
0001
2000
0000
3100
0000
,  // measure 73
0001
0100
0001
0100
1000
0100
0010
0000
,  // measure 74
0100
0010
0001
1000
0001
0100
1000
0000
,  // measure 75
0020
0000
0030
0100
0002
0000
0003
0010
,  // measure 76
0200
0000
0300
0010
0200
0000
0300
0001
,  // measure 77
2000
0000
0000
3000
,  // measure 78
0200
0000
0300
0001
1000
0010
0001
0100
,  // measure 79
2000
0000
3000
0100
0020
0000
0030
0001
,  // measure 80
2000
0000
3000
0010
0200
0000
0300
0001
,  // measure 81
0020
0000
0000
0000
0030
1000
0100
0001
,  // measure 82
1000
0001
0100
0010
,  // measure 83
0001
0100
0010
0001
1000
0001
0100
0010
,  // measure 84
0001
1000
0001
0100
0001
0100
1000
0100
,  // measure 85
0010
0001
0100
0001
0100
0010
0001
0100
,  // measure 86
1000
0001
0100
0001
0100
0010
0001
0001
,  // measure 87
0100
0010
0001
1000
0001
0100
0010
0001
,  // measure 88
0010
0001
1000
0001
0100
0010
0001
1000
,  // measure 89
0001
0100
0010
0001
1000
0001
0100
0010
,  // measure 90
0001
1000
0001
0100
0010
0001
1000
0001
,  // measure 91
0100
0010
0001
1000
0001
0100
0010
0001
,  // measure 92
1000
0001
0100
0010
0001
1000
0100
0001
,  // measure 93
0100
0010
0001
0100
0001
0100
0010
0001
,  // measure 94
1000
0001
0100
0010
0001
0100
0001
0100
,  // measure 95
0010
0001
1000
0001
0100
0010
0001
1000
,  // measure 96
0001
0100
0001
0010
1000
0001
0100
0010
,  // measure 97
0001
0100
0001
0100
0010
0001
1000
0001
,  // measure 98
0100
0010
0001
1000
0001
0100
0010
0001
,  // measure 99
0100
0001
0100
0010
0001
1000
0001
0100
,  // measure 100
0010
0001
0100
0001
0100
0010
0001
1000
,  // measure 101
0001
0100
0010
0001
1000
0001
0100
0010
,  // measure 102
0100
0000
0001
0010
0100
0000
0001
0000
,  // measure 103
1000
0100
0010
0001
0100
1000
0010
0100
,  // measure 104
0010
0010
0100
0010
0010
0001
0100
1000
,  // measure 105
0001
0100
0010
0001
0100
0001
0100
0010
,  // measure 106
0001
0100
0001
0100
0010
0001
0100
1000
,  // measure 107
0001
0100
0010
0001
0100
0001
0100
0010
,  // measure 108
0001
0100
1000
0100
0010
0001
0100
0001
,  // measure 109
0100
0010
0001
1000
0001
0100
0010
0001
,  // measure 110
1000
0001
0100
0010
0001
1000
0001
0100
,  // measure 111
0010
0001
1000
0001
0100
0010
0001
1000
,  // measure 112
0001
0100
0010
0001
1000
0001
0100
0010
,  // measure 113
0001
1000
0001
0100
0010
0001
0100
0001
,  // measure 114
0100
0010
0001
1000
0001
0100
0010
0001
,  // measure 115
1000
0001
0100
0010
0001
1000
0001
0100
,  // measure 116
0010
0001
1000
0001
0100
0010
0001
1000
,  // measure 117
0001
0100
0010
0001
1000
0001
0100
0010
,  // measure 118
0001
1000
0001
0100
0010
0001
1000
0001
,  // measure 119
0100
0010
0001
0100
0001
0100
0010
0001
,  // measure 120
1000
0001
0100
0010
0001
0100
0001
0100
,  // measure 121
0010
0001
1000
0001
0100
0010
0001
1000
,  // measure 122
0001
0100
0010
0001
0100
1000
0001
0100
,  // measure 123
0010
0001
1000
0001
0100
0010
0001
1000
,  // measure 124
0001
0100
0010
0001
1000
0001
0100
0010
,  // measure 125
0001
0100
0001
0100
0001
0010
0001
0100
,  // measure 126
0010
0001
1000
0001
0100
0010
0001
1000
,  // measure 127
0001
0100
0010
0001
1000
0001
0100
0010
,  // measure 128
0001
1000
0001
0100
0010
0001
1000
0001
,  // measure 129
0100
0010
0001
1000
0001
0100
0010
0001
,  // measure 130
1000
0001
0100
0010
0001
1000
0001
0100
,  // measure 131
1000
0000
0000
0000
;
