#TITLE:femininomenon;
#SUBTITLE:;
#ARTIST:Chappell Roan;
#TITLETRANSLIT:;
#SUBTITLETRANSLIT:;
#ARTISTTRANSLIT:;
#GENRE:;
#CREDIT:;
#BANNER:;
#BACKGROUND:;
#LYRICSPATH:;
#CDTITLE:;
#MUSIC:Femininomenon.mp3;
#OFFSET:0.000000;
#SAMPLESTART:100.059883;
#SAMPLELENGTH:12.000000;
#SELECTABLE:YES;
#BPMS:0.000000=124.999992
,32.000000=122.000000
,40.000000=124.999992
,48.000000=122.000000
,104.000000=124.999992
;
#STOPS:0.000000=0.500000,
132.000000=3.800000,
272.000000=2.900000,
336.000000=2.900000,
364.000000=1.900000
;
#BGCHANGES:;
#KEYSOUNDS:;
#ATTACKS:;

//---------------dance-single - ----------------
#NOTES:
     dance-single:
     :
     Hard:
     11:
     0.371171,0.558600,0.013651,0.113756,0.313967,571.000000,568.000000,3.000000,25.000000,0.000000,0.000000,0.371171,0.558600,0.013651,0.113756,0.313967,571.000000,568.000000,3.000000,25.000000,0.000000,0.000000:
0000
0000
0000
0000
,
0000
0000
0000
0000
,
0000
0000
0000
0000
,
0000
0000
0000
0000
,
0000
0000
0000
0000
,
0000
0000
0000
0000
,
0010
0001
0000
0010
0000
0001
0000
0100
,
0000
0000
1000
0100
0000
0000
0000
0000
,
0001
0100
0000
0010
0000
0000
0100
0001
,
0000
0000
0001
0100
0000
0100
0000
0000
,
1000
0010
0000
0001
0000
0100
0000
0010
,
0000
0000
0100
0001
0000
0000
0000
0000
,
0100
1000
0000
0100
0000
0010
0000
0001
,
0000
0000
0100
0001
0000
0010
0000
0100
,
0001
0000
0000
0100
0000
0000
0010
0000
0001
0000
0000
0100
0000
0000
1000
0000
,
0001
0000
0000
0100
0000
0000
0010
0000
0001
0000
0000
0000
0100
0000
0000
0000
,
0100
0000
0000
0010
0000
0000
0001
0000
0100
0000
0000
0010
0000
0000
0100
0000
,
1000
0000
0000
0001
0000
0000
0100
0000
0010
0000
0000
0000
0001
0000
0000
0000
,
1000
0100
0000
0001
0000
0100
0000
0010
,
0000
0001
0000
0100
0000
0000
0000
0000
,
0001
0100
0000
0010
0000
0000
0010
0001
,
0000
0000
0100
0000
0000
0000
0001
0000
0000
0000
0000
0000
0000
0000
0000
0001
,
1000
0010
0000
0001
0000
0000
0100
0010
,
0000
0000
0000
0000
,
0010
0001
0000
1000
0000
0000
0010
0001
,
0220
0000
0000
0000
0000
0000
0000
0000
0000
0000
0000
0000
0330
0000
0100
0001
,
0200
0000
0000
0000
0000
0000
0000
0000
0000
0000
0000
0000
0300
0000
1000
0001
,
2000
0000
0000
0000
0000
0000
0000
0000
0000
0000
0000
0000
3000
0000
0100
0001
,
0200
0000
0000
0000
0000
0000
0000
0000
0000
0000
0000
0000
0300
0000
0010
0001
,
0020
0000
0000
0000
0000
0000
0000
0000
0000
0000
0000
0000
0030
0000
0100
0010
,
0200
0000
0010
0000
0000
0000
0010
0000
0000
0000
0010
0000
0300
0000
0010
0001
,
0020
0000
0100
0000
0000
0000
0100
0000
0000
0000
0100
0000
0030
0000
0001
1000
,
0002
0000
0010
0000
0000
0000
0010
0000
0000
0000
0013
0000
0000
0000
1000
0001
,
1000
0000
0010
0100
0100
0000
1000
0000
0100
0000
0010
0100
0000
0000
0001
1000
,
0001
0000
0010
0100
0001
0000
1000
0000
0100
0000
0001
0010
0000
0000
0100
0001
,
1000
0000
0100
0001
0010
0000
0100
0000
0001
0000
1000
0100
0000
0000
0001
0010
,
0100
0000
0001
1000
0001
0010
0100
0000
0001
0000
0010
0100
0000
0000
0001
0010
,
0100
0000
0001
1000
0100
0000
0010
0000
0001
0000
0010
0100
0000
0000
0001
1000
,
0001
0000
0010
0100
0001
0000
0010
0000
0100
0000
0001
1000
0000
0000
0100
0001
,
0100
0000
0010
0100
0001
0000
0010
0000
0100
0000
0001
0010
0000
0000
1000
0100
,
1000
0000
0010
0001
0100
0001
0100
0000
0010
0000
0010
0001
0000
0000
0000
0000
,
1000
0100
0000
0010
0000
0001
0000
0010
,
0000
0000
1000
0100
0000
0000
0000
0000
,
0100
0001
0000
0010
0000
0000
1000
0100
,
0000
0000
0001
0010
0000
0100
0000
0000
,
0001
1000
0000
0100
0000
0010
0000
0001
,
0000
0000
0010
0001
0000
0000
0000
0000
,
0000
0001
0000
0100
0000
0010
0100
0000
,
0100
0000
0010
0000
0100
0001
0000
0000
,
1000
0000
0000
0001
0000
0000
0010
0000
0001
0000
0000
0100
0000
0000
0010
0000
,
0001
0000
0000
0100
0000
0000
0010
0000
0001
0000
0000
0000
1000
0000
0000
0000
,
0001
0000
0000
0100
0000
0000
0010
0000
0001
0000
0000
1000
0000
0000
0010
0000
,
0001
0000
0000
0100
0000
0000
0010
0000
0001
0000
0000
0000
1000
0000
0000
0000
,
0001
0010
0000
0100
0000
0000
0001
0010
,
0000
0000
0010
0001
0000
0000
0000
0000
,
0001
0100
0000
0010
0000
0000
0001
0100
,
0000
0001
0000
1000
0000
0000
0000
0000
,
0010
0001
0000
1000
0000
0000
0010
0001
,
0000
0000
0000
0000
2000
0000
0000
3000
,
0001
0100
0000
0010
0000
0000
0001
0100
,
2002
0000
0000
0000
0000
0000
0000
0000
0000
0000
0000
0000
3003
0000
0100
0001
,
0200
0000
0000
0000
0000
0000
0000
0000
0000
0000
0000
0000
0300
0000
0010
0100
,
0020
0000
0000
0000
0000
0000
0000
0000
0000
0000
0000
0030
0000
0000
1000
0001
,
2000
0000
0000
0000
0000
0000
0000
0000
0000
0000
0000
0000
3000
0000
0100
0001
,
0200
0000
0000
0000
0000
0000
0000
0000
0000
0000
0000
0300
0000
0000
0100
0010
,
0200
0000
0010
0000
0000
0000
0010
0000
0000
0000
0010
0300
0000
0000
0001
0010
,
0002
0000
1000
0000
0000
0000
1000
0000
0000
0000
1003
0000
0000
0000
0100
0001
,
0200
0000
0010
0000
0000
0000
0010
0000
0000
0000
0010
0300
0000
0000
0001
1000
,
0100
0000
0010
0100
0001
0000
1000
0000
0100
0000
0001
0010
0000
0000
0100
0010
,
0001
0000
1000
0100
0001
0000
0010
0000
0100
0000
0001
0010
0000
0000
0100
0001
,
1000
0000
0100
0001
0010
0000
0001
0000
0010
0000
0100
0001
0000
0000
0010
0100
,
0001
0000
1000
0100
0001
0010
0100
0000
0001
0000
0010
0100
0000
0000
0001
0010
,
0001
0000
1000
0001
0010
0000
0001
0000
1000
0000
0100
0001
0000
0000
0010
0100
,
0001
0000
0010
0100
0001
0000
1000
0000
0100
0000
0010
0001
0000
0000
1000
0100
,
0001
0000
0010
0100
0001
0000
0010
0000
0100
0000
0001
0010
0000
0000
0001
1000
,
0100
0000
0001
1000
0001
0010
0100
0000
0001
0000
0010
0100
0000
0000
0000
0000
,
1001
0000
0000
0000
,
0000
0000
0000
0000
,
0000
0000
0000
0000
,
0000
0000
0000
0000
,
0000
0000
0000
0000
,
0000
0000
0000
0000
,
0000
0000
0000
0000
,
0000
0000
0000
0000
,
0000
0000
0100
0001
0100
0000
0010
0000
0100
0000
0001
0010
0000
0000
0100
0001
,
1000
0000
0100
0001
0010
0000
0100
0000
0001
0000
0010
0100
0000
0000
0001
1000
,
0100
0000
0010
0100
0001
0000
1000
0000
0100
0000
0001
0010
0000
0000
0001
1000
,
0001
0000
0010
0100
0001
1000
0001
0000
0010
0000
0100
0001
0000
0000
1000
0100
,
0001
0000
0010
0100
0001
0000
0010
0000
0100
0000
0001
1000
0000
0000
0100
0001
,
0010
0000
0001
1000
0100
0000
0001
0000
0010
0000
0100
0001
0000
0000
1000
0100
,
0001
0000
0010
0100
0001
0000
0010
0000
0100
0000
0010
0001
0000
0000
0100
0001
,
1000
0000
0100
0001
0010
0000
0100
0000
0001
0000
1000
0100
0000
0000
0001
0010
,
0100
0000
0001
0010
0100
0000
0001
0000
1000
0000
0100
0001
0000
0000
0010
0100
,
0001
0000
1000
0100
0001
0000
0010
0000
0100
0000
0001
0010
0000
0000
0100
0001
,
1000
0000
0001
0100
0010
0001
1000
0001
0100
0000
0010
0001
0000
0000
0010
0100
,
0001
0000
1000
0100
0001
0000
0010
0000
0100
0000
0001
0010
0000
0000
0100
0001
,
1000
0000
0010
0100
0001
0000
0010
0000
0100
0000
0001
0010
0000
0000
0100
0001
,
1000
0000
0010
0100
0001
0000
0010
0000
0100
0000
0001
1000
0000
0000
0100
0001
,
0010
0000
0100
0001
1000
0100
0001
0000
0010
0000
0100
0001
0000
0000
0010
0100
,
0002
0000
0000
0000
0000
0000
0000
0000
0000
0000
0000
0000
0003
0000
1000
0001
,
2000
0000
0000
0000
0000
0000
0000
0000
0000
0000
0000
0000
3000
0000
0100
0001
,
0200
0000
0000
0000
0000
0000
0000
0000
0000
0000
0000
0000
0300
0000
0001
1000
,
0001
0000
0010
0100
0001
1000
0001
0000
0010
0000
0100
0001
0000
0000
1000
0001
,
2000
0000
0000
0000
0000
0000
0000
0000
0000
0000
0000
0000
3000
0000
0100
0001
,
0200
0000
0000
0000
0000
0000
0000
0000
0000
0000
0000
0000
0300
0000
0010
0100
,
0020
0000
0000
0000
0000
0000
0000
0000
0000
0000
0000
0000
0030
0000
0001
0010
,
0001
0001
0001
0001
;

//---------------dance-single - ----------------
#NOTES:
     dance-single:
     :
     Medium:
     8:
     0.300317,0.437166,0.022751,0.118307,0.075079,462.000000,457.000000,5.000000,26.000000,0.000000,0.000000,0.300317,0.437166,0.022751,0.118307,0.075079,462.000000,457.000000,5.000000,26.000000,0.000000,0.000000:
0000
0000
0000
0000
,
0000
0000
0000
0000
,
0000
0000
0000
0000
,
0000
0000
0000
0000
,
0000
0000
0000
0000
,
0000
0000
0000
0000
,
0010
0001
0000
1000
0000
0001
0000
0100
,
0000
0000
0010
0001
0000
0000
0000
0000
,
0010
0100
0000
0100
0000
0000
0010
0001
,
0000
0000
0000
0000
0000
0000
1000
0000
0001
0000
0000
0010
0000
0000
0000
0000
,
0001
1000
0000
0100
0000
0010
0000
0001
,
0000
0000
0000
1000
0001
0000
0000
0000
,
0001
0100
0000
0100
0000
0001
0000
0100
,
0000
0000
0001
1000
0000
0100
0000
0000
,
0010
0001
1000
0001
,
0100
0010
0001
1000
,
0010
0001
1000
0100
,
0001
0010
0100
0001
,
1000
0001
0000
0010
0000
0001
0000
0100
,
0000
0010
0000
0001
0000
0000
0000
0000
,
0001
0100
0000
0010
0000
0000
0001
0100
,
0000
0010
0000
0001
0000
0000
0000
0000
,
0100
0001
0000
0010
0000
0000
0100
0001
,
0000
0000
0000
0000
,
0000
0000
0000
0000
0000
0000
0001
0010
,
2002
0000
0000
0000
0000
0000
3003
0010
,
0200
0000
0000
0000
0000
0000
0300
0001
,
2000
0000
0000
0000
0000
0000
3000
0010
,
0200
0000
0000
0000
0000
0000
0300
0001
,
0020
0000
0000
0000
0000
0000
0030
0100
,
0002
1000
0000
1000
0000
1003
0000
0100
,
0002
1000
0000
1000
0000
1003
0000
0100
,
0002
0000
0000
0000
0000
0000
0003
0010
,
1000
0000
0001
0000
0010
0000
0100
0000
0001
0000
1000
0010
0000
0000
0001
0000
,
0010
0000
0100
0000
0001
0000
0100
0000
0001
0000
1000
0001
0000
0000
0010
0000
,
0100
0000
0001
0000
1000
0000
0001
0000
0010
0000
0100
0001
0000
0000
1000
0000
,
0001
0000
0010
0000
0100
0000
0001
0000
1000
0000
0001
0010
0000
0000
0100
0000
,
0001
0000
0010
0000
0100
0000
0010
0000
0001
0000
0100
0001
0000
0000
0100
0000
,
0010
0000
0001
0000
1000
0000
0001
0000
0100
0000
0010
0001
0000
0000
0100
0000
,
1000
0000
0001
0000
0100
0000
0010
0000
0001
0000
1000
0100
0001
0000
0100
0000
,
0010
0000
0001
0000
1000
0000
0100
0000
0001
0000
0010
0100
0000
0000
0000
0000
,
0001
0100
0000
0010
0000
0001
0000
0100
,
0000
0000
0010
0001
0000
0000
0000
0000
,
0100
0010
0000
0001
0000
0000
0001
0100
,
0000
0000
1000
0100
0000
0001
0000
0000
,
0100
0010
0000
0001
0000
0100
0000
0010
,
0000
0000
0100
0001
0000
0000
0000
0000
,
0100
0010
0000
1000
0000
0100
0001
0010
,
0100
0000
0001
0000
0010
0100
0000
0000
,
0001
0010
0100
0001
,
1000
0001
0010
0100
,
0001
1000
0001
0010
,
0100
0001
0100
0001
,
0010
1000
0000
0100
0000
0000
0001
0010
,
0000
0000
0100
0001
0000
0000
0000
0000
,
0010
0001
0000
0100
0000
0000
0010
0001
,
0000
0100
0000
0001
0000
0000
0000
0000
,
0010
0001
0000
0100
0000
0000
0100
0001
,
0000
0000
0000
0000
,
0100
0010
0000
0001
0000
0000
0010
0100
,
2002
0000
0000
0000
0000
0000
3003
0100
,
0020
0000
0000
0000
0000
0000
0030
0001
,
2000
0000
0000
0000
0000
0000
3000
0001
,
0020
0000
0000
0000
0000
0000
0030
0100
,
0002
0000
0000
0000
0000
0000
0003
0010
,
0200
0010
0000
0010
0000
0310
0000
0001
,
2000
0001
0000
0001
0000
3001
0000
0100
,
0020
1000
0000
1000
0000
1030
0000
0100
,
0001
0000
0100
0000
0010
0000
0001
0000
1000
0000
0100
0001
0000
0000
0010
0000
,
0100
0000
0001
0000
1000
0000
0001
0000
0010
0000
0100
0001
0000
0000
0010
0000
,
0100
0000
0001
0000
1000
0000
0001
0000
0010
0000
0100
0001
0000
0000
0010
0000
,
0100
0000
1000
0000
0001
0000
0010
0000
0100
0000
0001
0010
0000
0000
0100
0000
,
0001
0000
1000
0000
0100
0000
0001
0000
0010
0000
0100
0001
0000
0000
0010
0000
,
0100
0000
0001
0000
0010
0000
0100
0000
0001
0000
1000
0100
0000
0000
0001
0000
,
0010
0000
0100
0000
0001
0000
1000
0000
0001
0000
0010
0100
0000
0000
0001
0000
,
0010
0000
0100
0000
0001
0000
1000
0000
0100
0000
0001
0010
0000
0000
0000
0000
,
1001
0000
0000
0000
,
0000
0000
0000
0000
,
0000
0000
0000
0000
,
0000
0000
0000
0000
,
0000
0000
0000
0000
,
0000
0000
0000
0000
,
0000
0000
0000
0000
,
0000
0000
0000
0000
,
0000
0000
0100
0000
0001
0000
0010
0000
0100
0000
0001
0010
0000
0000
0100
0000
,
0010
0000
0001
0000
0100
0000
0001
0000
1000
0000
0001
0100
0000
0000
0010
0000
,
0100
0000
0001
0000
1000
0000
0001
0000
0010
0000
0100
0001
0000
0000
0010
0000
,
0100
0000
0001
0000
1000
0000
0001
0000
0010
0000
0100
0001
0000
0000
0010
0000
,
0100
0000
0001
0000
0010
0000
0100
0000
0001
0000
1000
0100
0000
0000
0010
0000
,
0100
0000
0001
0000
1000
0000
0001
0000
0010
0000
0100
0001
0000
0000
0010
0000
,
0100
0000
0001
0000
1000
0000
0001
0000
0010
0000
0100
0001
0000
0000
0010
0000
,
0100
0000
0100
0000
0010
0000
0001
0000
0100
0000
0001
0010
0000
0000
0001
0000
,
1000
0000
0001
0000
0100
0000
0010
0000
0001
0000
1000
0100
0000
0000
0001
0000
,
0100
0000
0001
0000
0100
0000
0010
0000
0001
0000
0100
0001
0000
0000
1000
0000
,
0100
0000
0001
0000
0010
0000
0100
0000
0001
0000
1000
0100
0000
0000
0001
0000
,
0010
0000
0100
0000
0001
0000
1000
0000
0001
0000
0010
0001
0000
0000
0100
0000
,
0001
0000
0010
0000
0100
0000
0001
0000
1000
0000
0100
0001
0000
0000
0010
0000
,
0100
0000
0001
0000
1000
0000
0001
0000
0010
0000
0100
0001
0000
0000
0100
0000
,
0010
0000
0001
0000
1000
0000
0001
0000
0100
0000
0010
0001
0000
0000
0100
0000
,
0220
0000
0000
0000
0000
0000
0330
0100
,
0002
0000
0000
0000
0000
0000
0003
0010
,
0200
0000
0000
0000
0000
0000
0300
0010
,
0001
0000
0100
0000
0010
0000
0100
0000
0001
0000
0010
0100
0000
0000
0001
0000
,
2002
0000
0000
0000
0000
0000
3003
0100
,
0002
0000
0000
0000
0000
0000
0003
0010
,
0200
0000
0000
0000
0000
0000
0300
0001
,
0001
0001
0001
0001
;

//---------------dance-single - ----------------
#NOTES:
     dance-single:
     :
     Easy:
     3:
     0.124807,0.267157,0.018201,0.100106,0.000000,192.000000,188.000000,4.000000,22.000000,0.000000,0.000000,0.124807,0.267157,0.018201,0.100106,0.000000,192.000000,188.000000,4.000000,22.000000,0.000000,0.000000:
0000
0000
0000
0000
,
0000
0000
0000
0000
,
0000
0000
0000
0000
,
0000
0000
0000
0000
,
0000
0000
0000
0000
,
0000
0000
0000
0000
,
0100
0000
0000
0000
,
0000
0000
0000
0000
,
0001
0000
0000
0000
,
0000
0000
0000
0000
,
1000
0000
0000
0000
,
0000
0000
0000
0000
,
0100
0000
0000
0000
,
0000
0000
0000
0000
,
0010
0000
0100
0000
,
0001
0000
1000
1000
,
0100
0000
0001
0000
,
0010
0000
0100
0100
,
0010
0000
0000
0000
,
0000
0000
0000
0000
,
1000
0000
0000
0000
,
0000
0000
0000
0000
,
0001
0000
0000
0000
,
0000
0000
0000
0000
,
0010
0000
0000
0000
,
0000
0000
0000
0000
,
0200
0000
0000
0300
,
0002
0000
0000
0003
,
2000
0000
0000
3000
,
0200
0000
0000
0300
,
0002
0000
0000
0003
,
0020
0000
0000
0030
,
0200
0000
0000
0300
,
0010
1000
0001
0010
,
0100
0001
1000
0001
,
0010
0100
0001
1000
,
0001
0010
0100
0001
,
1000
0001
0010
0100
,
0001
1000
0010
0100
,
0001
1000
0001
0010
,
0100
0001
0100
0001
,
0100
0000
0000
0000
,
0000
0000
0000
0000
,
0010
0000
0000
0000
,
0000
0000
0000
0000
,
1000
0000
0000
0000
,
0000
0000
0000
0000
,
0001
0000
0000
0000
,
0000
0000
0000
0000
,
0001
0000
1000
0000
,
0001
0000
0010
0100
,
0001
0000
1000
0000
,
0100
0000
0001
0010
,
0100
0000
0000
0000
,
0000
0000
0000
0000
,
0100
0000
0000
0000
,
0000
0000
0000
0000
,
0001
0000
0000
0000
,
0000
0000
0000
0000
,
1000
0000
0000
0000
,
0000
0000
0000
0000
,
0200
0000
0000
0300
,
0002
0000
0000
0003
,
2000
0000
0000
3000
,
0200
0000
0000
0300
,
0002
0000
0000
0003
,
0020
0000
0000
0030
,
0200
0000
0000
0300
,
0001
0010
0100
0001
,
1000
0001
0010
0100
,
0001
1000
0001
0010
,
0100
0001
1000
0001
,
0010
0100
0001
1000
,
0001
0010
0100
0001
,
0010
0100
0001
1000
,
0001
0010
0100
0001
,
1001
0000
0000
0000
,
0000
0000
0000
0000
,
0000
0000
0000
0000
,
0000
0000
0000
0000
,
0000
0000
0000
0000
,
0000
0000
0000
0000
,
0000
0000
0000
0000
,
0000
0000
0000
0000
,
0000
0010
0100
0001
,
1000
0001
0010
0100
,
0001
1000
0001
0010
,
0100
0001
1000
0001
,
0010
0100
0001
1000
,
0001
0010
0100
0001
,
1000
0001
0010
0100
,
0001
1000
0100
0001
,
0010
0100
0001
1000
,
0001
0010
0100
0001
,
1000
0001
0010
0100
,
0001
1000
0001
0010
,
0100
0001
0001
0100
,
0011
0010
0100
0001
,
1000
0001
0010
0100
,
2002
0000
0000
3003
,
0020
0000
0000
0030
,
0200
0000
0000
0300
,
0001
1000
0100
0001
,
2002
0000
0000
3003
,
0020
0000
0000
0030
,
0200
0000
0000
0300
,
0001
0001
0001
0001
;

//---------------dance-single - ----------------
#NOTES:
     dance-single:
     :
     Beginner:
     1:
     0.049403,0.096465,0.013651,0.000000,0.000000,76.000000,73.000000,3.000000,0.000000,0.000000,0.000000,0.049403,0.096465,0.013651,0.000000,0.000000,76.000000,73.000000,3.000000,0.000000,0.000000,0.000000:
// measure 0
0000
0000
0000
0000
,  // measure 1
0000
0000
0000
0000
,  // measure 2
0000
0000
0000
0000
,  // measure 3
0000
0000
0000
0000
,  // measure 4
0000
0000
0000
0000
,  // measure 5
0000
0000
0000
0000
,  // measure 6
0100
0000
0000
0000
,  // measure 7
0000
0000
0000
0000
,  // measure 8
0001
0000
0000
0000
,  // measure 9
0000
0000
0000
0000
,  // measure 10
1000
0000
0000
0000
,  // measure 11
0000
0000
0000
0000
,  // measure 12
0010
0000
0000
0000
,  // measure 13
0000
0000
0000
0000
,  // measure 14
0100
0000
0000
0000
,  // measure 15
0000
0000
0000
0000
,  // measure 16
0010
0000
0000
0000
,  // measure 17
0000
0000
0000
0000
,  // measure 18
1000
0000
0000
0000
,  // measure 19
0000
0000
0000
0000
,  // measure 20
0001
0000
0000
0000
,  // measure 21
0000
0000
0000
0000
,  // measure 22
0010
0000
0000
0000
,  // measure 23
0000
0000
0000
0000
,  // measure 24
0100
0000
0000
0000
,  // measure 25
0000
0000
0000
0000
,  // measure 26
0010
0000
0000
0000
,  // measure 27
0100
0000
0000
0000
,  // measure 28
0010
0000
0000
0000
,  // measure 29
1000
0000
0000
0000
,  // measure 30
0001
0000
0000
0000
,  // measure 31
0010
0000
0000
0000
,  // measure 32
0100
0000
0000
0000
,  // measure 33
0010
0000
0000
0000
,  // measure 34
0100
0000
0000
0000
,  // measure 35
0001
0000
0000
0000
,  // measure 36
1000
0000
0000
0000
,  // measure 37
0100
0000
0000
0000
,  // measure 38
0010
0000
0000
0000
,  // measure 39
0100
0000
0000
0000
,  // measure 40
0010
0000
0000
0000
,  // measure 41
1000
0000
0000
0000
,  // measure 42
0000
0000
0000
0000
,  // measure 43
0010
0000
0000
0000
,  // measure 44
0000
0000
0000
0000
,  // measure 45
0100
0000
0000
0000
,  // measure 46
0000
0000
0000
0000
,  // measure 47
1000
0000
0000
0000
,  // measure 48
0000
0000
0000
0000
,  // measure 49
0010
0000
0000
0000
,  // measure 50
0000
0000
0000
0000
,  // measure 51
0100
0000
0000
0000
,  // measure 52
0000
0000
0000
0000
,  // measure 53
0001
0000
0000
0000
,  // measure 54
0000
0000
0000
0000
,  // measure 55
1000
0000
0000
0000
,  // measure 56
0000
0000
0000
0000
,  // measure 57
0100
0000
0000
0000
,  // measure 58
0000
0000
0000
0000
,  // measure 59
0001
0000
0000
0000
,  // measure 60
0000
0000
0000
0000
,  // measure 61
1000
0000
0000
0000
,  // measure 62
0010
0000
0000
0000
,  // measure 63
0100
0000
0000
0000
,  // measure 64
0001
0000
0000
0000
,  // measure 65
0010
0000
0000
0000
,  // measure 66
1000
0000
0000
0000
,  // measure 67
0100
0000
0000
0000
,  // measure 68
0010
0000
0000
0000
,  // measure 69
0100
0000
0000
0000
,  // measure 70
0010
0000
0000
0000
,  // measure 71
0100
0000
0000
0000
,  // measure 72
0010
0000
0000
0000
,  // measure 73
1000
0000
0000
0000
,  // measure 74
0100
0000
0000
0000
,  // measure 75
0010
0000
0000
0000
,  // measure 76
1001
0000
0000
0000
,  // measure 77
0000
0000
0000
0000
,  // measure 78
0000
0000
0000
0000
,  // measure 79
0000
0000
0000
0000
,  // measure 80
0000
0000
0000
0000
,  // measure 81
0000
0000
0000
0000
,  // measure 82
0000
0000
0000
0000
,  // measure 83
0000
0000
0000
0000
,  // measure 84
0000
0000
0000
0000
,  // measure 85
0100
0000
0000
0000
,  // measure 86
0010
0000
0000
0000
,  // measure 87
0100
0000
0000
0000
,  // measure 88
1000
0000
0000
0000
,  // measure 89
0001
0000
0000
0000
,  // measure 90
0010
0000
0000
0000
,  // measure 91
0100
0000
0000
0000
,  // measure 92
0010
0000
0000
0000
,  // measure 93
0100
0000
0000
0000
,  // measure 94
0010
0000
0000
0000
,  // measure 95
0100
0000
0000
0000
,  // measure 96
0001
0000
0000
0000
,  // measure 97
1000
0000
0000
0000
,  // measure 98
0001
0000
0000
0000
,  // measure 99
1001
0000
0000
0000
,  // measure 100
0010
0000
0000
0000
,  // measure 101
0100
0000
0000
0000
,  // measure 102
0010
0000
0000
0000
,  // measure 103
1001
0000
0000
0000
,  // measure 104
0010
0000
0000
0000
,  // measure 105
0100
0000
0000
0000
,  // measure 106
0010
0000
0000
0000
;
