#VERSION:0.83;
#TITLE:etheral connection;
#SUBTITLE:;
#ARTIST:Tame Impala;
#TITLETRANSLIT:;
#SUBTITLETRANSLIT:;
#ARTISTTRANSLIT:;
#GENRE:;
#ORIGIN:;
#CREDIT:;
#BANNER:;
#BACKGROUND:;
#PREVIEWVID:;
#JACKET:;
#CDIMAGE:;
#DISCIMAGE:;
#LYRICSPATH:;
#CDTITLE:;
#MUSIC:Tame Impala - Ethereal Connection (Official Audio).ogg;
#OFFSET:0.000000;
#SAMPLESTART:100.059883;
#SAMPLELENGTH:12.000000;
#SELECTABLE:YES;
#BPMS:0.000=135.000;
#STOPS:0.000=0.900;
#DELAYS:;
#WARPS:;
#TIMESIGNATURES:0.000=4=4;
#TICKCOUNTS:0.000=4;
#COMBOS:0.000=1;
#SPEEDS:0.000=1.000=0.000=0;
#SCROLLS:0.000=1.000;
#FAKES:;
#LABELS:0.000=Song Start;
#BGCHANGES:;
#KEYSOUNDS:;
#ATTACKS:
;

//---------------dance-single - ----------------
#NOTEDATA:;
#CHARTNAME:;
#STEPSTYPE:dance-single;
#DESCRIPTION:;
#CHARTSTYLE:;
#DIFFICULTY:Hard;
#METER:13;
#RADARVALUES:0.528400,0.785659,0.163816,0.030177,0.377209,1716.000000,1640.000000,76.000000,14.000000,0.000000,0.000000,0.000000,0.000000,0.000000,0.528400,0.785659,0.163816,0.030177,0.377209,1716.000000,1640.000000,76.000000,14.000000,0.000000,0.000000,0.000000,0.000000,0.000000;
#CREDIT:;
#NOTES:
// measure 0
0000
0000
0000
0000
,  // measure 1
0000
0000
0000
0000
,  // measure 2
1000
0001
0100
0110
,  // measure 3
0001
0100
0001
1100
,  // measure 4
0001
0100
0010
1100
,  // measure 5
0001
0100
0010
0101
,  // measure 6
0001
0100
0010
1001
,  // measure 7
0001
0100
1000
0110
,  // measure 8
0010
0101
0010
0100
,  // measure 9
0010
1001
0001
0100
,  // measure 10
0010
1001
0100
0010
,  // measure 11
0001
0000
0000
0000
1010
0000
0000
0000
0001
0010
0001
0010
0100
0001
0010
0100
,  // measure 12
0010
1001
0001
0100
,  // measure 13
0010
1001
0001
0100
,  // measure 14
0010
0000
0101
0000
0100
0010
1000
0100
,  // measure 15
0001
0010
0110
0001
1000
0001
0100
0010
,  // measure 16
1000
0100
1000
0100
1000
0100
1000
0100
,  // measure 17
1000
0100
1000
0100
1000
0100
1000
0100
,  // measure 18
1000
0100
1000
0100
1000
0100
1000
0100
,  // measure 19
1000
0100
1000
0100
1000
0100
1000
0100
,  // measure 20
1000
0100
1000
0100
1000
0100
1000
0100
,  // measure 21
1000
0100
1000
0100
1000
0100
1000
0100
,  // measure 22
1000
0100
1000
0100
1000
0100
1000
0100
,  // measure 23
1000
0000
0100
0000
1000
0000
0100
0000
1000
0100
0000
0001
0010
0000
0100
0000
,  // measure 24
0001
0010
0100
0001
1000
0001
0100
0001
,  // measure 25
0010
0001
1000
0001
0100
0010
0001
1000
,  // measure 26
0001
0100
0010
0001
1000
0001
0100
0010
,  // measure 27
0001
1000
0001
0100
0010
0001
1000
0001
,  // measure 28
0100
0010
0001
1000
0001
0100
0010
0001
,  // measure 29
0100
0001
0100
0010
0001
1000
0001
0100
,  // measure 30
0010
0001
1000
0001
0100
0010
0001
0100
,  // measure 31
0001
0100
0010
0001
1000
0001
0100
0010
,  // measure 32
0001
1000
0001
0100
0001
0010
0100
0001
,  // measure 33
0100
0001
0100
0010
0001
1000
0001
0100
,  // measure 34
0010
0001
0100
0001
0100
0010
0001
1000
,  // measure 35
0001
0100
0010
0001
0100
0001
0100
0010
,  // measure 36
0001
1000
0001
0100
0010
0001
1000
0001
,  // measure 37
0100
0010
0001
1000
0001
0100
0010
0001
,  // measure 38
1000
0001
0100
0010
0001
1000
0001
0100
,  // measure 39
0010
0000
0001
0000
0100
0000
0010
0000
0001
0100
0000
0010
1000
0000
0100
0010
,  // measure 40
0001
0010
0001
0100
0010
0001
0100
0001
,  // measure 41
0100
0010
0001
1000
0001
0100
0010
0001
,  // measure 42
0100
0001
0100
0010
0001
1000
0001
0100
,  // measure 43
0010
0001
0100
0001
0100
0010
0001
1000
,  // measure 44
0001
0100
0010
0001
1000
0001
0100
0010
,  // measure 45
0001
0100
0001
0100
0010
0001
1000
0001
,  // measure 46
0100
0010
0001
1000
0001
0100
0010
0001
,  // measure 47
1000
0000
0001
0000
0100
0000
0010
0000
1000
0100
0000
0000
0010
0100
0001
1000
,  // measure 48
0001
0010
1000
0001
0100
0010
0001
0100
,  // measure 49
0001
0100
0010
0001
1000
0001
0100
0010
,  // measure 50
0001
0100
0001
0100
0010
0001
1000
0001
,  // measure 51
0100
0010
0001
0100
0001
0100
0010
0001
,  // measure 52
1000
0001
0100
0010
0001
0100
0001
0100
,  // measure 53
0010
0001
1000
0001
0100
0010
0001
0100
,  // measure 54
0001
0100
0010
0001
1000
0001
0100
0010
,  // measure 55
0001
0100
0001
0100
0010
0001
1000
0001
,  // measure 56
0100
0010
0001
1000
0001
0100
0010
0001
,  // measure 57
0100
0001
0100
0010
0001
1000
0001
0100
,  // measure 58
0010
0001
1000
0001
0100
0010
0001
1000
,  // measure 59
0001
0100
0010
0001
1000
0001
0100
0010
,  // measure 60
0001
1000
0001
0100
0010
0001
1000
0001
,  // measure 61
0100
0010
0001
1000
0001
0100
0001
0010
,  // measure 62
0100
0010
0001
1000
0001
0100
0010
0001
,  // measure 63
1000
0000
0001
0000
0100
0000
0010
0000
1000
0100
0000
0000
0001
0000
0100
0001
,  // measure 64
0010
0010
0001
0100
0010
0001
1000
0001
,  // measure 65
0100
0010
0001
1000
0001
0100
0010
0001
,  // measure 66
1000
0001
0100
0010
0001
1000
0001
0100
,  // measure 67
0010
0001
0100
0001
0100
0010
0001
1000
,  // measure 68
0001
0100
0010
0001
1000
0001
0100
0010
,  // measure 69
0001
1000
0001
0100
0010
0001
1000
0001
,  // measure 70
0100
0010
0001
1000
0001
0100
0010
0001
,  // measure 71
1000
0000
0001
0000
0100
0000
0010
0000
1000
0100
0000
0001
0010
0000
0100
0001
,  // measure 72
1000
0010
0001
1000
0001
0100
0010
0001
,  // measure 73
0100
0010
0001
1000
0001
0100
0010
0001
,  // measure 74
1000
0001
0100
0001
0100
0010
1000
0001
,  // measure 75
0100
0010
0100
0001
0100
0010
0001
1000
,  // measure 76
0001
0100
0010
0001
1000
0001
0100
0010
,  // measure 77
0001
1000
0001
0100
0010
0001
1000
0001
,  // measure 78
0100
0010
0001
0100
1000
0001
0100
0010
,  // measure 79
0100
0001
1000
0100
0001
0100
0010
0000
0100
0001
1000
0100
0001
1000
0010
0100
,  // measure 80
0001
0010
0100
0010
0001
1000
0001
0100
,  // measure 81
0010
0001
1000
0001
0100
0010
0001
0100
,  // measure 82
0001
0100
0010
0001
1000
0001
0100
0010
,  // measure 83
0001
0100
0001
0100
0010
0001
1000
0001
0100
0010
0001
1000
0001
0100
0001
0100
,  // measure 84
1000
0001
0100
0010
0001
0100
0001
0100
,  // measure 85
0010
0001
1000
0001
0100
0010
0001
0100
,  // measure 86
0001
0100
0010
0001
1000
0001
0100
0010
,  // measure 87
0100
0010
0001
0100
0001
0100
0010
0001
1000
0001
0100
0010
0001
0010
0100
0001
,  // measure 88
1000
0000
0110
0010
0000
0000
0000
0000
,  // measure 89
0000
0000
0110
0010
0000
0000
0000
0000
,  // measure 90
0000
0000
1001
1000
0000
0000
0000
0000
,  // measure 91
0000
0000
1001
1000
0000
0000
0000
0000
,  // measure 92
0100
0000
1001
1000
0000
0100
0000
0010
,  // measure 93
0000
1000
0101
0001
0000
0000
1000
0100
,  // measure 94
0001
0000
0010
0110
0000
0100
0000
0001
,  // measure 95
0000
0000
1001
0001
0000
0000
0000
1001
,  // measure 96
0001
0000
1001
1000
0000
0100
0000
0010
,  // measure 97
0000
0100
0101
0010
0000
0000
1000
0100
,  // measure 98
0001
0000
0010
0110
0000
0100
0000
1000
,  // measure 99
0000
0000
0101
0100
0001
0000
0100
0000
,  // measure 100
0020
0100
0000
0000
,  // measure 101
0000
0100
0000
0000
,  // measure 102
0000
0100
0000
0000
,  // measure 103
0000
0130
0001
0100
,  // measure 104
0002
0010
0000
0000
,  // measure 105
0000
0010
0000
0000
,  // measure 106
0000
0010
0000
0000
,  // measure 107
0000
0000
0010
0000
0000
0000
0003
0001
,  // measure 108
0010
0100
0010
0001
0100
0001
0100
1000
,  // measure 109
0100
0001
0100
0010
0100
0010
0010
0100
,  // measure 110
0001
0100
0001
0010
0100
0001
1000
0001
,  // measure 111
0100
0010
0001
0100
0001
0100
0010
0001
,  // measure 112
1000
0001
0100
0010
0001
0100
0001
0100
,  // measure 113
0010
0001
1000
0001
0100
0010
0001
0100
,  // measure 114
0001
0100
0010
0001
1000
0001
0100
0010
,  // measure 115
0100
0010
0001
0100
0001
0100
0010
0001
1000
0001
0100
0010
0001
1000
0001
0100
,  // measure 116
2000
0000
0000
3000
,  // measure 117
0100
0001
0100
0001
1000
0001
0010
0100
0001
1000
0001
0010
0100
0001
0010
0100
,  // measure 118
0002
0000
0000
0003
,  // measure 119
0100
1000
0001
0010
0100
0001
1000
0001
,  // measure 120
2002
0000
0000
0000
,  // measure 121
0000
0000
0000
0000
,  // measure 122
0000
0000
0000
0000
,  // measure 123
0000
0000
0000
0000
3003
0000
0000
0000
1000
0001
0000
0010
0100
0000
0001
0000
,  // measure 124
0010
1000
0001
0100
0010
0001
1000
0001
,  // measure 125
0100
0000
0001
0000
0100
0000
1000
0000
0001
0100
0000
0010
0001
0000
0100
0000
,  // measure 126
1000
0001
0010
0100
0100
0010
0001
0100
,  // measure 127
0010
0000
0001
0000
0100
0000
0010
0000
0001
0100
0000
0010
0001
0000
0100
0000
,  // measure 128
0220
0000
0000
0000
,  // measure 129
0000
0000
0000
0000
,  // measure 130
0000
0000
0000
0000
,  // measure 131
0000
0000
0000
0330
,  // measure 132
0010
0110
0010
0100
,  // measure 133
0010
0110
0010
0100
,  // measure 134
0010
0011
0100
1000
,  // measure 135
0001
0000
0110
0000
0010
0000
0100
0001
,  // measure 136
1000
0100
0001
0100
0001
1000
0001
0010
,  // measure 137
0001
1000
0001
0100
0010
0001
1000
0001
,  // measure 138
0100
0010
0001
1000
0001
0100
0010
0001
,  // measure 139
1000
0000
0001
0000
0100
0000
0010
0000
1000
0001
0100
0010
0001
1000
0001
0100
,  // measure 140
1000
0000
0000
0100
0000
0001
1000
0100
0001
0000
0000
1000
0000
0100
0001
0100
,  // measure 141
0001
0000
0000
0010
0000
0100
0001
0100
1000
0100
0000
0001
0000
1000
0100
0001
,  // measure 142
0100
0001
0000
0010
0000
0100
0001
1000
0001
0010
0000
0001
0000
1000
0100
0001
,  // measure 143
0100
0001
0000
1000
0000
0100
0001
1000
0001
0010
0000
0100
0000
0001
1000
0100
,  // measure 144
0001
0100
0000
0001
0000
0010
0100
0001
1000
0001
0000
0010
0000
0100
0001
1000
,  // measure 145
0001
0010
0000
0001
0000
1000
0100
0001
0100
0001
0000
0010
0000
0001
1000
0100
,  // measure 146
0001
0100
0000
0001
0000
1000
0100
0001
0100
0001
0000
0010
0000
0100
0001
1000
,  // measure 147
0001
0010
0000
0100
0000
0001
1000
0001
0100
1000
0000
0010
0001
0100
0001
1000
,  // measure 148
0001
0010
0000
0100
0010
0001
1000
0100
0001
0010
0000
0100
0010
0001
1000
0100
,  // measure 149
0001
0010
0000
0100
0010
0001
1000
0100
0001
0100
0000
0001
0100
0010
0100
0001
,  // measure 150
1000
0001
0000
0010
0001
0100
0001
1000
0001
0010
0000
0100
0010
0001
1000
0100
,  // measure 151
0001
0100
0000
0010
0001
0100
0001
1000
0001
0010
0000
0100
0000
0001
0010
0100
,  // measure 152
0001
1000
0000
0100
0010
0001
0010
0100
0001
1000
0000
0100
0010
0100
0001
1000
,  // measure 153
0001
0010
0000
0100
0001
1000
0001
0010
0100
0001
0000
0010
0100
0001
1000
0001
,  // measure 154
0010
0100
0000
0001
1000
0100
0001
1000
0100
0001
0000
0010
1000
0100
0010
0001
,  // measure 155
1000
0001
0000
0100
0010
0001
1000
0100
0001
1000
0000
0100
0001
0010
0100
0001
,  // measure 156
1000
0100
0000
0001
0000
1000
0001
0010
0100
0000
0000
0010
0000
0100
0001
1000
,  // measure 157
0001
0000
0000
0010
0000
0100
0001
1000
0001
0010
0000
0100
0000
0001
1000
0100
,  // measure 158
0001
0100
0000
0010
0000
0001
0100
1000
0001
0010
0000
0100
0000
0001
1000
0100
,  // measure 159
0001
0010
0000
0100
0000
0001
0010
0100
0001
1000
0000
0100
0000
0010
0001
1000
,  // measure 160
0100
0010
0000
0100
0000
0001
1000
0100
0001
0100
0000
0010
0000
0001
1000
0001
,  // measure 161
0100
0010
0000
0100
0000
0001
1000
0100
0001
0100
0000
0010
0000
0100
0001
1000
,  // measure 162
0001
0010
0000
0100
0000
0001
1000
0100
0010
0100
0000
0001
0000
0010
0100
0001
,  // measure 163
1000
0001
0000
0100
0000
0001
1000
0100
0001
0010
0100
0001
0000
1000
0100
0001
,  // measure 164
0010
0100
0000
0001
0000
1000
0100
0001
0010
0100
0000
0001
0000
1000
0100
0001
,  // measure 165
0100
0001
0000
1000
0000
0100
0001
1000
0010
0100
0000
0001
0000
0010
0100
0001
,  // measure 166
1000
0001
0000
0010
0000
0100
0001
1000
0001
0010
0000
0100
0000
0001
1000
0100
,  // measure 167
0001
0010
0000
0100
0000
0010
0100
0001
0010
1000
0000
0001
0000
1000
0100
0001
,  // measure 168
0100
0001
0000
0010
0000
0100
0001
1000
0001
0010
0000
0100
0000
1000
0100
0001
,  // measure 169
0100
0010
0000
0001
0000
0001
0010
0100
0001
1000
0000
0100
0000
0001
1000
0100
,  // measure 170
0001
0010
0000
0100
0000
0001
1000
0100
0001
0100
0000
0010
0000
0001
0010
0100
,  // measure 171
0001
1000
0000
0100
0000
0001
0010
0100
0001
1000
0000
0100
0000
0010
0100
0010
,  // measure 172
0001
1000
0000
0100
0000
0001
0010
0100
0001
1000
0000
0010
0000
0100
0001
1000
,  // measure 173
0001
0010
0000
0100
0000
0001
1000
0100
0001
0010
0000
0100
0000
0001
0010
0100
,  // measure 174
0001
1000
0000
0001
0000
0010
0100
0001
1000
0001
0000
0010
0000
0100
0001
1000
,  // measure 175
0001
0010
0000
0100
0000
0001
1000
0100
0001
0010
0000
0100
0000
0001
1000
0100
,  // measure 176
0001
0010
0000
0000
0001
0000
0000
0000
0100
0000
0000
0000
0010
0000
0000
0000
,  // measure 177
0001
1000
0001
0100
,  // measure 178
0010
0100
0001
1000
,  // measure 179
0001
0010
0100
0001
,  // measure 180
1000
0001
0010
0100
,  // measure 181
0001
1000
0001
0010
,  // measure 182
0100
0001
1000
0001
,  // measure 183
1000
0001
0100
0010
,  // measure 184
0001
0100
0010
0001
,  // measure 185
1000
0001
0100
0010
,  // measure 186
0010
0001
1001
0000
0010
0001
1001
0000
,  // measure 187
0100
0010
1001
0000
1000
0001
1001
0000
,  // measure 188
1000
0010
1010
0000
1000
0001
1001
0000
,  // measure 189
1000
0010
1010
0000
0010
0001
0101
0000
,  // measure 190
0100
0010
1001
0000
0010
0100
0101
0000
,  // measure 191
0001
1000
1001
0000
0010
0100
0110
0000
,  // measure 192
0001
1000
1001
0000
0100
0001
0101
0000
,  // measure 193
0001
1000
1001
0000
0010
0001
0100
0000
,  // measure 194
0001
0100
1000
0000
0010
0100
0001
0000
,  // measure 195
1000
0100
0001
0000
0010
0100
0001
0000
,  // measure 196
0001
0100
0010
0000
0001
0100
1000
0000
,  // measure 197
0001
0100
1000
0000
0001
0100
0010
0000
,  // measure 198
0001
0100
1000
0000
0010
0100
0001
0000
,  // measure 199
0010
0100
0001
0000
1000
0100
0001
0000
,  // measure 200
0100
0001
0100
0010
,  // measure 201
0001
1000
0001
0100
,  // measure 202
0001
1000
0001
0100
,  // measure 203
0100
0010
0001
1000
,  // measure 204
0000
0000
1001
1000
0000
0000
0000
0000
,  // measure 205
0000
0000
0101
0100
0000
0000
0000
0000
,  // measure 206
0000
0000
1100
0100
0000
0000
0000
0000
,  // measure 207
0000
0000
0101
0100
0000
0000
0000
0000
,  // measure 208
0000
0000
1100
0100
0000
0000
0000
0000
,  // measure 209
0000
0000
0110
0010
0000
0000
0000
0000
,  // measure 210
0000
0000
1001
0001
0000
0000
0000
0000
,  // measure 211
0000
0000
0101
0001
0000
0000
0000
0000
,  // measure 212
0220
0000
0000
0000
,  // measure 213
0000
0000
0000
0000
,  // measure 214
0000
0000
0000
0000
,  // measure 215
0000
0000
0000
0330
,  // measure 216
0100
0000
0100
1000
0000
0001
0000
0010
,  // measure 217
0000
0001
1001
0010
0000
0000
1000
0100
,  // measure 218
0000
0001
1001
0100
0000
0001
0000
1000
,  // measure 219
0000
0000
0110
0001
0001
0000
0100
0000
,  // measure 220
2000
0100
0000
0000
,  // measure 221
0000
0100
0000
0000
,  // measure 222
0000
0100
0000
0000
,  // measure 223
0000
3100
0100
0001
,  // measure 224
0020
0100
0000
0000
,  // measure 225
0000
0100
0000
0000
,  // measure 226
0000
0100
0000
0000
,  // measure 227
0000
0130
0001
1000
,  // measure 228
0200
0001
0000
0000
,  // measure 229
0000
0001
0000
0000
,  // measure 230
0000
0001
0000
0000
,  // measure 231
0000
0301
0001
0100
,  // measure 232
0020
0100
0000
0000
,  // measure 233
0000
0100
0000
0000
,  // measure 234
0000
0100
0000
0000
,  // measure 235
0000
0130
0001
1000
,  // measure 236
0100
0000
1001
0001
0000
0000
0000
0000
,  // measure 237
0100
0001
1001
0100
0001
0000
0010
0100
,  // measure 238
0001
0000
1001
0001
0000
0000
1000
0100
,  // measure 239
0000
0000
0101
0001
0001
0000
1000
0000
,  // measure 240
0100
0000
1001
0001
0000
0000
0000
0000
,  // measure 241
0001
0100
1001
1000
0010
0000
0100
0001
,  // measure 242
1000
0000
1001
0001
0000
0000
0000
0000
,  // measure 243
0000
0000
1001
1000
0000
0000
0000
0000
,  // measure 244
0000
0000
1001
0001
0000
0000
0000
0000
,  // measure 245
1000
0100
0011
0010
0100
0000
0001
0010
,  // measure 246
1000
0000
1001
1000
0000
0000
0000
0000
,  // measure 247
0000
0000
1001
1000
0001
0000
0100
0000
,  // measure 248
0010
0000
1001
1000
0000
0000
0000
0000
,  // measure 249
1000
0100
0101
0100
1000
0000
0100
0001
,  // measure 250
0100
0000
0011
0100
0000
0000
0000
0000
,  // measure 251
0000
0000
1001
1000
0000
0000
0000
0000
;
