#VERSION:0.83;
#TITLE:ectasy;
#SUBTITLE:;
#ARTIST:Odetari;
#TITLETRANSLIT:;
#SUBTITLETRANSLIT:;
#ARTISTTRANSLIT:;
#GENRE:;
#ORIGIN:;
#CREDIT:;
#BANNER:;
#BACKGROUND:;
#PREVIEWVID:;
#JACKET:;
#CDIMAGE:;
#DISCIMAGE:;
#LYRICSPATH:;
#CDTITLE:;
#MUSIC:Odetari - ECSTASY (Official Audio).mp3;
#OFFSET:0.000000;
#SAMPLESTART:100.059883;
#SAMPLELENGTH:12.000000;
#SELECTABLE:YES;
#BPMS:0.000=120.000;
#STOPS:0.000=0.150;
#DELAYS:;
#WARPS:;
#TIMESIGNATURES:0.000=4=4;
#TICKCOUNTS:0.000=4;
#COMBOS:0.000=1;
#SPEEDS:0.000=1.000=0.000=0;
#SCROLLS:0.000=1.000;
#FAKES:;
#LABELS:0.000=Song Start;
#BGCHANGES:;
#KEYSOUNDS:;
#ATTACKS:
;

//---------------dance-single - ----------------
#NOTEDATA:;
#CHARTNAME:;
#STEPSTYPE:dance-single;
#DESCRIPTION:;
#CHARTSTYLE:;
#DIFFICULTY:Hard;
#METER:12;
#RADARVALUES:0.522671,0.571671,0.062246,0.006916,0.179823,529.000000,520.000000,9.000000,1.000000,0.000000,0.000000,0.000000,0.000000,0.000000,0.522671,0.571671,0.062246,0.006916,0.179823,529.000000,520.000000,9.000000,1.000000,0.000000,0.000000,0.000000,0.000000,0.000000;
#CREDIT:;
#NOTES:
// measure 0
0000
0000
0000
0000
,  // measure 1
0000
0000
0000
0000
,  // measure 2
0000
0000
0000
0000
,  // measure 3
0000
0000
0000
0000
0000
0000
0100
0000
0010
0001
0010
0000
0200
0000
0000
0000
,  // measure 4
0000
0000
0000
0000
,  // measure 5
0000
0000
0000
0000
,  // measure 6
0000
0000
0000
0000
,  // measure 7
0000
0000
0000
0300
,  // measure 8
1000
0100
0001
0010
0000
0000
0000
0000
,  // measure 9
0000
0000
0000
0000
0000
0100
0001
1000
,  // measure 10
0001
0000
0010
0001
0000
0000
0000
0000
,  // measure 11
0000
0000
0000
0000
0000
0000
0001
0100
,  // measure 12
1000
0000
0010
0001
0000
0000
0000
0000
,  // measure 13
0000
0000
0000
0000
0000
0000
0001
1000
,  // measure 14
0100
0001
0010
0100
0100
0001
0100
0010
,  // measure 15
0001
0000
1000
0000
0001
0000
0100
0000
1000
0001
1000
0001
1000
0001
1000
0001
,  // measure 16
1000
0100
0010
0001
1000
0001
0100
0010
,  // measure 17
0001
0100
0001
0000
0100
0000
0010
0000
0001
0000
1000
0000
0001
0000
0100
0000
,  // measure 18
1000
0001
0100
0010
0001
1000
0001
0100
,  // measure 19
0010
0001
1000
0000
0100
0000
0010
0000
0001
0000
1000
0000
0001
0000
0100
0000
,  // measure 20
1000
0100
0010
0001
1000
0001
0100
0010
,  // measure 21
0001
1000
0100
0000
0100
0000
0010
0000
0001
0000
1000
0000
0001
0000
0100
0000
,  // measure 22
0010
0001
0100
0010
0001
1000
0001
0100
,  // measure 23
0010
0001
0100
0000
0010
0000
0001
0000
1000
0000
0001
0000
0100
0000
0010
0000
,  // measure 24
0100
0000
0001
0000
1000
0000
0100
0000
0001
0000
0100
0000
0001
0010
0100
0000
,  // measure 25
0010
0000
0001
0000
1000
0000
0001
0000
0100
0000
0010
0000
0001
0100
1000
0000
,  // measure 26
0100
0000
0010
0000
0001
0000
1000
0000
0001
0000
0100
0000
0010
0001
0100
0000
,  // measure 27
0010
0000
0001
0000
1000
0000
0001
0000
0100
0000
0010
0000
0001
0100
1000
0000
,  // measure 28
0101
0100
0010
0001
1000
0001
0100
0010
,  // measure 29
0100
0001
0010
0000
0010
0000
0001
0000
1000
0000
0001
0000
0100
0000
0010
0000
,  // measure 30
1001
0010
0100
0010
0001
1000
0001
0100
,  // measure 31
0010
0001
0100
0000
0010
0000
0001
0000
1000
0000
0001
0000
0100
0000
0010
0000
,  // measure 32
1001
0010
0100
0010
0001
1000
0001
0100
,  // measure 33
0010
0001
0100
0000
0010
0000
0001
0000
0100
0000
0001
0000
0100
0000
0010
0000
,  // measure 34
1001
0010
0100
0010
0001
1000
0001
0100
,  // measure 35
0010
0001
0100
0000
0010
0000
0001
0000
0001
0000
0100
0000
1000
0000
0000
0000
,  // measure 36
0110
0001
1000
0001
0010
0100
0001
0010
,  // measure 37
0010
0100
0001
0000
0100
0000
0010
0000
0001
0000
1000
0000
0001
0000
0100
0000
,  // measure 38
1000
0001
0100
0010
0001
1000
0001
0100
,  // measure 39
0010
0001
0100
0000
0010
0000
0001
0000
1000
0000
0001
0000
0100
0000
0010
0000
,  // measure 40
0001
1000
0001
0100
0010
0001
1000
0001
,  // measure 41
0010
0100
0010
0001
0100
0001
0100
0010
,  // measure 42
0001
1000
0001
0100
0010
0001
0100
1000
,  // measure 43
0001
0000
0100
0000
1000
0010
0100
0001
0010
0000
0101
0000
1001
0000
0110
0000
,  // measure 44
0100
0100
0010
0001
1000
0001
0100
0010
,  // measure 45
1000
0100
0001
0000
0010
0000
0001
0000
0100
0000
0010
0000
0001
0000
1000
0000
,  // measure 46
0001
0100
0010
0001
1000
0001
0100
0010
,  // measure 47
0100
0010
0100
0000
0010
0000
0001
0000
0100
0000
0010
0000
0001
0000
1000
0000
,  // measure 48
0001
0100
0010
0001
1000
0001
0100
0010
,  // measure 49
0100
0001
0010
0000
0100
0000
0001
0000
1000
0000
0001
0000
0010
0000
0100
0000
,  // measure 50
0001
1000
0001
0010
0100
0001
1000
0001
,  // measure 51
0010
0100
0010
0001
1000
0001
0100
0010
,  // measure 52
1000
0100
0000
0001
0000
0010
0100
0001
1000
0100
0010
0000
0000
0001
0000
0000
,  // measure 53
1000
0100
0000
0001
0000
0010
0000
0000
0010
0000
0001
0000
0100
0000
1000
0000
,  // measure 54
0100
0001
0000
1000
0000
0100
0000
0000
0001
0010
0000
0100
0000
0000
0000
0000
,  // measure 55
0001
0100
0000
0010
0000
0100
0000
0000
0010
0000
0001
0000
0100
0000
0010
0000
,  // measure 56
1001
0010
0100
0010
0001
1000
0001
0100
,  // measure 57
1000
0001
0100
0000
0010
0000
0001
0000
1000
0000
0001
0000
0100
0000
0010
0000
,  // measure 58
0001
0100
1000
0000
0010
0000
0001
0000
1000
0000
0001
0000
0100
0000
0010
0000
,  // measure 59
1000
0001
0100
0000
0001
0000
0100
0000
0010
0000
0001
0000
1000
0000
0001
0000
,  // measure 60
0100
0010
0100
0000
0001
0000
1000
0000
0100
0000
0001
0000
0010
0000
0100
0000
,  // measure 61
0001
1000
0100
0000
0010
0000
0001
0000
1000
0000
0001
0000
0100
0000
0010
0000
,  // measure 62
1000
0100
0001
0000
0010
0000
0001
0000
1000
0000
0001
0000
0100
0000
0010
0000
,  // measure 63
0001
1000
0100
0000
0100
0000
0010
0000
1000
0000
0001
0000
0100
0000
0010
0000
,  // measure 64
0001
1000
0001
0100
0010
0001
0100
1000
,  // measure 65
0010
0001
0100
0000
0010
0000
0100
0000
0001
0000
1000
0000
0001
0000
0010
0000
,  // measure 66
0100
0001
1000
0001
0010
0100
0001
1000
,  // measure 67
0001
0010
0100
0000
0010
0000
0001
0000
0100
0000
0010
0000
0001
0000
1000
0000
,  // measure 68
0001
0100
0010
0001
1000
0001
0100
0010
,  // measure 69
0001
1000
0100
0000
0010
0000
0010
0000
0001
0000
1000
0000
0001
0000
0100
0000
,  // measure 70
0010
0001
0100
0010
0001
1000
0001
0100
,  // measure 71
0010
0001
0100
0000
0010
0000
0001
0000
0100
0000
0001
0000
0100
0000
1000
0000
;
