#VERSION:0.83;
#TITLE:doom culture;
#SUBTITLE:;
#ARTIST:Unknown artist;
#TITLETRANSLIT:;
#SUBTITLETRANSLIT:;
#ARTISTTRANSLIT:;
#GENRE:;
#ORIGIN:;
#CREDIT:;
#BANNER:;
#BACKGROUND:;
#PREVIEWVID:;
#JACKET:;
#CDIMAGE:;
#DISCIMAGE:;
#LYRICSPATH:;
#CDTITLE:;
#MUSIC:Doom Culture.mp3;
#OFFSET:0.000000;
#SAMPLESTART:100.059883;
#SAMPLELENGTH:12.000000;
#SELECTABLE:YES;
#BPMS:0.000=157.000,
341.250=2512.000;
#STOPS:0.000=0.400,
84.000=1.500,
148.000=0.800,
241.000=3.350;
#DELAYS:;
#WARPS:;
#TIMESIGNATURES:0.000=4=4;
#TICKCOUNTS:0.000=4;
#COMBOS:0.000=1;
#SPEEDS:0.000=1.000=0.000=0;
#SCROLLS:0.000=1.000;
#FAKES:;
#LABELS:0.000=Song Start;
#BGCHANGES:;
#KEYSOUNDS:;
#ATTACKS:
;

//---------------dance-single - ----------------
#NOTEDATA:;
#CHARTNAME:;
#STEPSTYPE:dance-single;
#DESCRIPTION:;
#CHARTSTYLE:;
#DIFFICULTY:Hard;
#METER:14;
#RADARVALUES:0.727659,0.993606,0.728689,0.007215,0.097399,706.000000,605.000000,101.000000,1.000000,0.000000,0.000000,0.000000,0.000000,0.000000,0.727659,0.993606,0.728689,0.007215,0.097399,706.000000,605.000000,101.000000,1.000000,0.000000,0.000000,0.000000,0.000000,0.000000;
#CREDIT:;
#NOTES:
// measure 0
0000
0000
0000
0000
,  // measure 1
0000
0000
0000
0000
,  // measure 2
0000
0000
0000
0000
,  // measure 3
0000
0000
0000
0000
,  // measure 4
1000
0100
0001
0010
0100
0001
0010
0100
,  // measure 5
0001
1000
0001
0010
0100
0001
0100
0001
,  // measure 6
0010
0100
0001
0100
0010
0010
0100
0001
,  // measure 7
0100
0001
1000
0100
0001
0010
0100
0001
,  // measure 8
1000
0001
0010
0100
0001
1000
0001
0010
,  // measure 9
0100
0001
0010
0100
0001
1000
0001
0100
,  // measure 10
0010
0001
0100
0001
0100
0010
0001
1000
,  // measure 11
0100
0010
0010
0010
0001
0100
0001
0100
,  // measure 12
0010
0001
1000
0001
0100
0010
0001
0100
,  // measure 13
0010
0001
0100
0001
0010
0001
1000
0001
,  // measure 14
0100
0010
0001
0100
0001
0100
0010
0001
,  // measure 15
1000
0001
0100
0010
0001
0100
0001
0100
,  // measure 16
0010
0001
1000
0001
0100
0010
0001
1000
,  // measure 17
0001
0100
0010
0001
1000
0001
0100
0000
,  // measure 18
0010
0000
0000
0000
0000
0000
0000
0010
,  // measure 19
0100
0100
0000
0001
0010
0100
0000
0000
,  // measure 20
0010
0010
0000
0000
0000
0000
0000
0000
,  // measure 21
0000
0000
0011
0100
0010
0100
1001
0010
,  // measure 22
0100
0001
0110
0001
0100
0010
1001
0010
,  // measure 23
0100
0010
1001
0001
0100
0001
0110
0001
,  // measure 24
0100
1000
0110
0001
0100
0010
1001
0010
,  // measure 25
0100
0001
0110
1000
0001
0100
0011
0100
,  // measure 26
0010
0100
0011
1000
0100
0010
0101
0010
,  // measure 27
0100
1000
0110
0001
0100
1000
0110
0001
,  // measure 28
0100
1000
0110
0010
0001
0100
1010
0001
,  // measure 29
0100
0010
0101
0110
0100
0010
1001
0100
,  // measure 30
0010
0001
0110
1001
0100
0100
1010
0001
,  // measure 31
0100
0010
0101
0110
0100
0010
1100
0101
,  // measure 32
0100
1000
0110
0101
0100
0010
1100
0101
,  // measure 33
0010
0001
0110
1001
0100
1000
0110
0101
,  // measure 34
0100
0010
0101
0110
0100
1000
0110
0101
,  // measure 35
0100
0010
1100
0110
0100
0001
0110
1001
,  // measure 36
0100
0000
0100
0000
0110
0000
0110
0000
1000
0100
0001
0100
0001
0000
1000
0000
,  // measure 37
0100
0010
0001
0100
0001
0100
0010
0001
,  // measure 38
1000
0001
0100
0010
0001
1000
0001
0100
,  // measure 39
0010
0001
1000
0001
0100
0010
0001
0100
,  // measure 40
0001
0000
0100
0000
0100
0001
0100
0000
0010
0000
0010
0000
0010
0000
0001
0000
,  // measure 41
0100
0001
0100
0010
0001
1000
0001
0100
,  // measure 42
0010
0001
1000
0001
0100
0010
0001
0100
,  // measure 43
0001
0100
0010
0001
1000
0001
0100
0010
,  // measure 44
0100
0010
0100
0000
0001
0000
1000
0000
0010
0000
0001
0000
0100
0000
0010
0000
,  // measure 45
0001
1000
0001
0100
0010
0001
0100
0001
,  // measure 46
0100
0010
0001
1000
0001
0100
0010
0001
,  // measure 47
1000
0001
0100
0010
0001
1000
0001
0100
,  // measure 48
0010
0100
0001
1000
0001
0100
0010
0001
,  // measure 49
0001
0001
0010
0010
0010
0001
0100
0001
,  // measure 50
0100
0010
0001
1000
0001
0100
0010
0001
,  // measure 51
1000
0100
0010
0001
0100
0001
0100
0010
,  // measure 52
0001
0000
1000
0000
0001
0010
0100
0000
0010
0000
0001
0000
0100
0000
1000
0000
,  // measure 53
0001
0100
0010
0001
1000
0001
0100
0010
,  // measure 54
0001
1000
0001
0100
0010
0001
1000
0001
,  // measure 55
0100
0010
0001
0100
0001
0100
0010
0001
,  // measure 56
1000
0001
0100
0010
0001
0100
0001
0100
,  // measure 57
0010
0001
1000
0001
0100
0010
0001
0100
,  // measure 58
0001
0100
0010
0001
1000
0001
0100
0001
,  // measure 59
0010
0100
0010
0001
0100
0010
0001
0100
,  // measure 60
1000
0100
0001
0000
1001
0000
0000
0000
,  // measure 61
1001
0000
1001
0000
,  // measure 62
1000
0001
1000
0001
0000
0000
0000
0000
1000
0001
1000
0000
0000
0000
0000
0000
,  // measure 63
1001
0000
1001
0000
,  // measure 64
1001
0000
1001
0000
,  // measure 65
1001
0000
1001
0000
,  // measure 66
1000
0001
1000
0000
0000
0000
0000
0000
1000
0001
1000
0000
0000
0000
0000
0000
,  // measure 67
1001
0000
1001
0000
,  // measure 68
1001
0000
0100
0010
0110
0000
0100
0010
,  // measure 69
1001
0000
0000
0000
0100
0000
0010
0000
0100
0001
0100
0000
0001
0000
0100
0000
,  // measure 70
1000
0001
1000
0000
0100
0000
0010
0000
0100
0001
0100
0000
1000
0000
0100
0000
,  // measure 71
0001
0010
0001
0000
0001
0000
0100
0000
1000
0001
1000
0000
0100
0000
0010
0000
,  // measure 72
0100
0001
0100
0000
0001
0000
0100
0000
1000
0001
1000
0000
0001
0000
0100
0000
,  // measure 73
0101
0000
0000
0000
0100
0000
0010
0000
1000
0001
1000
0001
1000
0000
0100
0000
,  // measure 74
0010
0100
0010
0000
0001
0000
0100
0000
1000
0001
1000
0000
0100
0001
0100
0000
,  // measure 75
0110
0000
0000
0000
0001
0000
0100
0000
1000
0001
1000
0001
0010
0000
0100
0000
,  // measure 76
0001
1000
0001
1000
0100
0000
0010
0000
0101
0000
1100
0000
0100
0000
0010
0000
,  // measure 77
0101
1100
0110
0001
1010
0101
0110
0001
,  // measure 78
1001
0110
0101
1000
0101
0110
1100
0100
,  // measure 79
0010
0110
0101
1000
1001
0110
1001
1001
,  // measure 80
1001
1001
1001
0010
0110
0110
0010
0001
,  // measure 81
1001
0110
0001
0010
0110
1100
0110
0110
,  // measure 82
0110
0101
0101
0110
0100
0001
0110
1001
,  // measure 83
0001
0010
0100
1001
0110
0101
0001
0100
,  // measure 84
1001
0000
0000
0000
0000
0000
0000
0010
,  // measure 85
0000
0000
0100
0000
0000
2000
0000
0000
0000
0000
0000
0000
0000
0000
0000
0000
,  // measure 86
0000
0000
0000
0000
,  // measure 87
0000
0000
0000
0000
,  // measure 88
0000
0000
0000
0000
,  // measure 89
0000
0000
0000
0000
,  // measure 90
0000
0000
0000
0000
,  // measure 91
0000
0000
0000
0000
0000
0000
0000
0000
0000
0000
0000
0000
0000
3000
0000
0000
;
