#TITLE:dog house;
#SUBTITLE:;
#ARTIST:Unknown artist;
#TITLETRANSLIT:;
#SUBTITLETRANSLIT:;
#ARTISTTRANSLIT:;
#GENRE:;
#CREDIT:;
#BANNER:;
#BACKGROUND:;
#LYRICSPATH:;
#CDTITLE:;
#MUSIC:DOG HOUSE.ogg;
#OFFSET:0.000000;
#SAMPLESTART:100.059883;
#SAMPLELENGTH:12.000000;
#SELECTABLE:YES;
#BPMS:0.000000=92.000000
,36.000000=149.000000
;
#STOPS:0.000000=2.200000,
108.000000=3.200000
;
#BGCHANGES:;
#KEYSOUNDS:;
#ATTACKS:;

//---------------dance-single - ----------------
#NOTES:
     dance-single:
     :
     Hard:
     13:
     0.607308,0.759111,0.831290,0.021045,0.123641,808.000000,650.000000,158.000000,4.000000,0.000000,0.000000,0.607308,0.759111,0.831290,0.021045,0.123641,808.000000,650.000000,158.000000,4.000000,0.000000,0.000000:
// measure 0
0000
0000
0000
0000
,  // measure 1
0000
0000
0001
0100
1000
0000
0000
0000
,  // measure 2
0010
0100
0001
0100
0001
0100
1000
0100
,  // measure 3
0000
0010
0001
1000
0100
0000
0100
0001
,  // measure 4
1000
0001
0100
0001
0100
1000
0000
0000
,  // measure 5
0001
0100
0001
0100
0001
0100
2000
0000
,  // measure 6
0000
0000
0000
0000
3000
0000
0000
0000
0100
0000
0001
0000
1000
0000
0001
0010
,  // measure 7
0000
0000
0000
0000
0000
0000
0000
1000
0100
0000
0000
0000
0010
0000
0001
0000
,  // measure 8
1000
0000
0001
0000
0100
0000
0010
0000
0001
0000
1000
0100
0010
0000
0100
0000
,  // measure 9
1001
0010
0100
0001
1001
0010
0100
0010
,  // measure 10
1001
0010
0100
0010
1001
0010
0100
0010
,  // measure 11
1001
0000
0000
0101
,  // measure 12
0000
0000
0000
0000
,  // measure 13
0000
0000
0000
0000
0001
1000
0001
0100
,  // measure 14
0010
0000
1000
0001
0101
0000
0011
0000
,  // measure 15
1001
0000
0000
0000
0001
1000
0001
0100
,  // measure 16
0001
0000
1000
0001
0110
0000
0011
0000
,  // measure 17
1001
0000
0000
0000
0001
0100
0001
0100
,  // measure 18
1010
0000
0001
1000
0110
0000
0011
0000
,  // measure 19
0101
0000
0000
0000
0001
0100
0001
0100
,  // measure 20
1000
0000
0100
0000
0001
0000
0100
0000
0011
0000
0000
0000
0011
0000
0000
0001
,  // measure 21
0100
0000
0000
0000
0000
0000
0000
0000
0000
0000
1000
0000
0100
0001
0000
0010
,  // measure 22
0100
0000
0000
0000
0000
0000
0000
1000
0100
0000
0000
0000
1001
0000
1001
0000
,  // measure 23
1001
0000
0000
0000
0001
0100
0001
0100
,  // measure 24
1000
0010
0001
1000
0011
0000
0110
0000
,  // measure 25
0000
1100
0000
0101
,  // measure 26
0100
0001
0100
1000
0000
0000
1001
0000
,  // measure 27
0000
1000
0100
0001
0101
0001
0101
0001
,  // measure 28
0101
0001
0101
0001
0101
0001
0101
0001
,  // measure 29
0101
1001
0000
0000
,  // measure 30
0000
0000
0100
0001
1000
0001
0010
0100
,  // measure 31
1001
0000
0101
0000
1010
0010
0100
0001
,  // measure 32
1001
0000
0101
1000
0100
0001
0100
0001
,  // measure 33
0110
0000
1001
0000
0101
0100
0001
0100
,  // measure 34
1000
0001
0100
0010
1001
0000
0110
0000
,  // measure 35
1001
0000
1001
0000
0101
1000
0001
0100
,  // measure 36
0001
0100
0001
1000
0110
0000
0010
0100
,  // measure 37
0101
0000
1001
0000
0110
0001
1001
0001
,  // measure 38
0100
0001
0100
0010
1001
0000
0001
1000
,  // measure 39
1001
0110
0101
1001
,  // measure 40
0100
0010
1000
0001
1001
0000
0110
0000
,  // measure 41
1001
0000
0001
0100
0001
0100
1000
0000
,  // measure 42
0001
0100
0001
0100
1010
0000
0011
0000
,  // measure 43
0110
0000
0001
0100
0001
0100
1010
0000
,  // measure 44
0001
0100
0001
0100
1001
0000
0100
0001
,  // measure 45
0101
0000
0001
0100
1000
0010
0100
0000
,  // measure 46
0001
0100
0001
0100
1001
0000
0101
0000
,  // measure 47
0101
0000
1001
0000
0010
0100
0001
1000
,  // measure 48
0011
0000
0100
0001
0101
0000
0110
0000
,  // measure 49
1001
0000
0100
0001
0100
0001
1000
0100
,  // measure 50
0101
0000
0100
0010
1001
0000
0101
0000
,  // measure 51
0110
0000
1001
0000
0001
0100
0010
0100
,  // measure 52
1001
0000
0100
0010
1001
0000
0101
0000
,  // measure 53
0000
1100
0000
0101
,  // measure 54
1000
0100
0001
0100
1001
0000
0110
0000
,  // measure 55
0010
0001
1000
0001
0100
0010
0001
1000
,  // measure 56
0001
0100
0001
0100
1000
0000
0001
0100
,  // measure 57
1001
0000
0100
0001
0100
0010
0001
0000
,  // measure 58
0001
0100
0001
0100
1001
0000
0010
0100
,  // measure 59
0011
0000
0001
0100
0001
0100
1000
0000
,  // measure 60
0001
0100
0001
0100
1000
0000
0100
0010
,  // measure 61
1001
0001
0100
0010
1001
1000
0100
0010
,  // measure 62
1001
1000
0100
0010
1001
1000
0100
0010
,  // measure 63
1001
0000
0000
1001
,  // measure 64
0000
0000
0000
0000
,  // measure 65
0000
0000
0000
0000
0100
0001
1000
0001
,  // measure 66
0010
0000
0001
0100
1001
0000
0101
0000
,  // measure 67
1001
0000
0000
0000
0010
0100
0001
1000
,  // measure 68
0001
0000
0001
0100
0110
0000
1001
0000
,  // measure 69
1001
0000
0101
0000
0001
0100
0001
0100
,  // measure 70
1001
0000
0001
0100
1001
0000
1001
0000
,  // measure 71
0101
0000
0000
0000
1000
0100
0001
0100
,  // measure 72
0001
0000
0000
0000
0010
0000
0100
0000
1001
0000
0000
0000
1001
0000
0000
0010
,  // measure 73
0100
0000
0001
0000
1000
0000
0001
0000
0100
0000
0001
0000
0010
0100
0000
0001
,  // measure 74
1000
0000
0000
0000
0000
0000
0000
0100
0001
0000
0000
0000
1001
0000
0000
0000
,  // measure 75
1001
0000
1001
0000
0010
0100
0001
1000
,  // measure 76
0010
0001
1000
0001
0110
0000
1001
0000
,  // measure 77
0101
0110
0000
1001
,  // measure 78
1000
0001
0100
0010
1001
0000
0110
0000
,  // measure 79
0000
0000
0000
0000
1000
0001
0100
0010
,  // measure 80
1001
0000
0010
0100
1001
0000
0110
0000
,  // measure 81
1001
0001
1000
0001
1001
0001
1000
0001
,  // measure 82
1001
0001
1000
0001
1001
0001
1000
0001
,  // measure 83
1001
0000
0000
0010
0100
0001
1000
0000
0001
0000
0100
0000
0010
0000
0001
0000
,  // measure 84
1000
0001
0100
0001
1010
0000
0101
0000
,  // measure 85
1000
0000
0100
0001
0100
0001
1000
0100
0001
0000
0100
0000
0001
0000
0100
0000
,  // measure 86
1000
0000
0100
0001
1000
0000
0010
0000
0101
0000
0000
0000
1001
0000
0000
0000
,  // measure 87
0110
1001
0110
0110
,  // measure 88
0101
0000
0000
0000
0101
0000
0000
0000
0110
0000
0000
0000
1001
0000
0001
0100
,  // measure 89
0010
0000
0010
0001
1000
0001
0100
0010
,  // measure 90
1001
0000
0001
0100
0110
0000
1001
0000
,  // measure 91
1001
0001
0100
0010
0001
1000
0001
0100
,  // measure 92
0010
0001
1000
0001
0100
1000
0100
0010
,  // measure 93
1001
0100
0010
0001
1000
0001
0100
0010
,  // measure 94
0001
1000
0100
0001
1000
0001
1000
0001
,  // measure 95
1001
0000
0010
0000
0100
0000
0001
0000
1000
0100
0000
0001
0010
0000
0100
0001
,  // measure 96
0010
0000
0100
0001
1000
0001
0010
0100
0001
1000
0001
0010
0100
0000
0000
0000
,  // measure 97
1001
0000
0010
0000
0100
0000
0001
0000
1000
0100
0000
0001
0010
0000
0001
1000
,  // measure 98
0000
0100
0001
0000
0010
0100
0000
0001
1000
0000
0100
0001
1000
0000
0000
0000
,  // measure 99
1001
0000
0010
0000
0100
0000
0001
1000
0100
0010
0001
0100
0001
0100
0010
0001
,  // measure 100
1000
0001
0100
0010
0001
1000
0001
0100
2000
0000
0000
0000
0000
0000
0000
0000
,  // measure 101
0000
0000
0000
0000
3000
0000
0001
0000
0001
0000
1000
0100
0000
0001
0010
0000
,  // measure 102
1000
0100
0001
0010
0100
0000
0001
1000
0100
0000
0001
0000
1000
0000
0001
0000
,  // measure 103
2002
0000
3003
0000
0100
0001
1000
0001
,  // measure 104
0110
0000
1000
0001
0110
0000
0101
0000
,  // measure 105
1100
1000
1100
1000
1100
1000
1100
1000
,  // measure 106
1100
1000
1100
1000
1100
1000
1100
1000
;
