#VERSION:0.83;
#TITLE:do it;
#SUBTITLE:;
#ARTIST:Underscores;
#TITLETRANSLIT:;
#SUBTITLETRANSLIT:;
#ARTISTTRANSLIT:;
#GENRE:;
#ORIGIN:;
#CREDIT:;
#BANNER:;
#BACKGROUND:;
#PREVIEWVID:;
#JACKET:;
#CDIMAGE:;
#DISCIMAGE:;
#LYRICSPATH:;
#CDTITLE:;
#MUSIC:underscores Do It.ogg;
#OFFSET:0.000000;
#SAMPLESTART:100.059883;
#SAMPLELENGTH:12.000000;
#SELECTABLE:YES;
#BPMS:0.000=124.000,
288.000=62.000,
308.000=124.000,
332.000=62.000,
348.000=124.000;
#STOPS:0.000=0.100;
#DELAYS:;
#WARPS:;
#TIMESIGNATURES:0.000=4=4;
#TICKCOUNTS:0.000=4;
#COMBOS:0.000=1;
#SPEEDS:0.000=1.000=0.000=0;
#SCROLLS:0.000=1.000;
#FAKES:;
#LABELS:0.000=Song Start;
#BGCHANGES:0.000=underscores Do It.mp4=1.000=0=0=1=====,
99999=-nosongbg-=1.000=0=0=0 // don't automatically add -songbackground-
;
#KEYSOUNDS:;
#ATTACKS:
;

//---------------dance-single - ----------------
#NOTEDATA:;
#CHARTNAME:;
#STEPSTYPE:dance-single;
#DESCRIPTION:;
#CHARTSTYLE:;
#DIFFICULTY:Hard;
#METER:14;
#RADARVALUES:0.635856,0.899725,0.168847,0.018761,0.576893,949.000000,913.000000,36.000000,4.000000,0.000000,0.000000,0.000000,0.000000,0.000000,0.635856,0.899725,0.168847,0.018761,0.576893,949.000000,913.000000,36.000000,4.000000,0.000000,0.000000,0.000000,0.000000,0.000000;
#CREDIT:;
#NOTES:
// measure 0
0000
0000
0000
0000
,  // measure 1
0000
0000
0000
0000
,  // measure 2
0000
0000
0000
0000
,  // measure 3
0000
0000
0000
0000
,  // measure 4
0010
0000
0100
0001
0000
0000
0010
0000
0101
0000
0000
0000
0011
0000
0000
0000
,  // measure 5
1000
0000
0100
0001
0000
0000
0010
0000
0100
0000
0001
0000
0110
0000
0000
0000
,  // measure 6
0100
0001
0100
1000
0000
0000
0100
0000
0011
0000
0000
0000
0101
0000
0000
0000
,  // measure 7
0010
0000
0100
0001
0000
0000
0100
0000
0010
0000
0000
0000
0101
0000
0000
0000
,  // measure 8
0001
0000
0100
0010
0001
0000
1000
0000
0011
0000
0000
0000
1001
0000
0000
0000
,  // measure 9
0010
0000
0001
0100
1000
0000
0001
0000
0110
0000
0000
0000
1001
0000
0000
0000
,  // measure 10
0001
0010
0001
0100
1000
0000
0010
0000
0101
0000
0000
0000
0101
0000
0000
0000
,  // measure 11
0100
0010
0001
1000
0001
0100
1000
0000
,  // measure 12
0100
0000
0001
0010
0100
0000
0001
0000
0101
0000
0000
0000
1001
0000
0000
0000
,  // measure 13
0001
0000
1000
0100
0001
0000
0100
0000
0010
0000
0000
0000
1100
0000
0000
0000
,  // measure 14
0001
0100
0001
0100
1000
0000
0100
0000
0010
0000
0001
0000
1000
0000
0010
0100
,  // measure 15
0001
1000
0100
0000
0100
0000
0010
0000
0001
0000
1000
0000
0001
0000
0100
0000
,  // measure 16
2000
0000
3000
0000
0100
0000
0001
0000
1000
0000
0000
0000
0100
0000
0001
0010
,  // measure 17
0200
0300
0001
0010
0100
0000
0001
0000
1000
0000
0001
0000
0110
0000
1000
0000
,  // measure 18
0001
1000
0100
0010
0000
0000
0001
0000
1001
0000
0000
0000
0110
0000
0010
0000
,  // measure 19
0001
1000
0001
0100
1000
0000
0001
0100
,  // measure 20
1010
0000
0000
0000
0000
0000
0001
0000
1001
0000
0000
0000
1100
0000
0001
0010
,  // measure 21
0100
0000
0001
0100
1000
0000
0001
0000
0100
0000
0010
0000
1001
0000
0000
0000
,  // measure 22
0001
0100
1000
0000
0001
0100
0010
0000
1000
0100
0001
0000
1001
0000
0000
0000
,  // measure 23
0001
0100
0010
0000
0001
1000
0100
0000
0010
0000
0001
0000
0100
0000
1000
0000
,  // measure 24
1001
0000
0000
0010
0000
0000
0100
0001
1000
0000
0001
0000
0100
0000
0000
0000
,  // measure 25
0010
0000
0000
0001
0000
0000
0100
0001
1000
0000
0010
0000
0100
0000
0000
0000
,  // measure 26
0001
1000
0001
0100
1000
0000
0100
0000
0001
0000
0010
0000
0100
0000
0000
0000
,  // measure 27
0000
0000
0001
1000
0001
0100
1000
0001
,  // measure 28
1000
0010
0001
1000
0001
0100
1000
0000
,  // measure 29
0001
0000
0100
0010
0001
0000
0100
0000
0001
0000
0100
0000
1000
0000
0000
0000
,  // measure 30
0001
1000
0001
0100
1000
0000
1000
0000
0001
0000
0100
0000
1000
0000
0100
0000
,  // measure 31
0001
1000
0100
0001
0100
0000
0010
0000
0100
0000
0001
0000
1000
0000
0001
0000
,  // measure 32
0110
0010
0001
0100
1000
0001
1000
0001
,  // measure 33
0100
0001
0010
1000
0001
0000
1000
0000
0001
0000
0100
0000
1001
0000
0010
0000
,  // measure 34
0100
0010
0100
0001
1000
0000
0100
0000
0001
0000
0010
0000
1000
0000
0100
0000
,  // measure 35
0001
0100
0010
0100
1000
0000
0010
0000
0001
0000
0100
0000
1000
0000
0010
0000
,  // measure 36
0001
0100
0001
1000
0100
0000
0010
0000
0001
0000
0100
0000
1000
0000
0010
0000
,  // measure 37
0100
0001
1000
0100
0001
0000
0100
0000
0010
0000
1000
0000
0101
0000
1000
0000
,  // measure 38
0001
0010
0100
0001
1000
0000
0010
0000
0001
0000
1000
0000
0001
0000
0100
0000
,  // measure 39
1000
0001
1000
0001
0100
0010
0100
0000
0010
0000
0100
0000
1000
0100
0001
0000
,  // measure 40
0100
0000
0010
0100
0001
0000
1000
0000
0001
0100
0010
0000
1000
0100
0001
0000
,  // measure 41
1000
0000
0100
0001
0010
0000
0100
0000
0001
0000
0000
0000
1001
0000
0000
0000
,  // measure 42
0001
0100
0001
1000
0100
0000
0010
0000
0101
0000
0000
0000
1100
0000
0000
0000
,  // measure 43
0100
0010
0001
1000
0001
0100
1000
0000
,  // measure 44
0100
0000
0001
1000
0100
0000
0001
0000
0110
0000
0000
0000
1001
0000
0000
0000
,  // measure 45
0010
0000
0001
0100
1000
0000
1000
0000
0001
0000
0100
0000
1000
0000
0100
0000
,  // measure 46
0001
0010
0100
0001
1000
0000
0001
0000
0100
0000
0010
0000
0001
1000
0001
0100
,  // measure 47
1000
0010
0100
0001
1000
0000
0010
0000
0001
0000
0100
0000
1000
0000
0100
0000
,  // measure 48
0001
0000
0000
1000
0000
0000
0100
0000
0000
0000
0000
0000
0000
0000
0010
0100
,  // measure 49
0001
0000
1000
0001
0100
0000
0001
0000
0100
0000
0001
0000
0100
0000
0010
0000
,  // measure 50
0001
1000
0001
0100
1000
0000
0010
0000
0001
0010
1000
0100
0001
0010
0100
0001
,  // measure 51
1000
0000
0001
0000
0100
0000
1000
0000
0001
0000
0100
0000
0010
0001
0100
0000
,  // measure 52
1000
0100
0001
1000
0001
0000
0010
0000
0100
0000
0001
0000
0100
0000
0010
0000
,  // measure 53
1000
0000
0100
0001
0010
0000
0001
0100
0001
0000
0010
0000
0100
0000
0010
0000
,  // measure 54
1000
0100
0001
0000
0010
0100
0001
0000
1000
0100
0001
0000
1001
0000
0000
0000
,  // measure 55
0010
0100
0001
0000
0010
0100
0001
0000
1000
0000
0100
0000
0001
0000
0100
0000
,  // measure 56
0010
0100
0001
1000
0001
0000
0100
0001
1000
0000
0100
0000
0010
0000
0001
0100
,  // measure 57
1000
0010
0001
0100
1000
0000
0010
0100
0001
0000
1000
0000
0100
0000
0000
0000
,  // measure 58
0010
0100
0001
1000
0001
0000
1000
0000
0001
0000
0100
0000
1000
0000
0000
0000
,  // measure 59
0001
1000
0001
0100
1000
0000
0010
0000
0001
0000
1000
0000
0100
0010
0001
0000
,  // measure 60
0100
0010
0001
1000
0001
0100
1000
0000
,  // measure 61
0100
0000
0001
1000
0100
0000
0001
0000
0100
0000
0001
0000
1000
0000
0000
0000
,  // measure 62
0001
1000
0001
0100
1000
0000
1000
0000
0001
0000
0100
0000
1000
0000
0100
0000
,  // measure 63
0010
0000
0001
0100
1000
0000
0001
0000
0000
0000
0000
0000
0000
0000
0110
0000
,  // measure 64
0100
0001
0010
0100
0001
0000
0100
0000
1000
0000
0001
0000
0100
0000
0010
0000
,  // measure 65
0001
1000
0001
0100
1000
0000
0001
0000
1000
0000
0001
0000
0100
0000
0010
0000
,  // measure 66
0001
1000
0001
0100
1000
0000
0001
0000
1000
0000
0001
0000
0100
0000
0010
0000
,  // measure 67
0001
1000
0001
0100
1000
0010
0100
0000
0010
0000
0100
0000
0001
1000
0100
0000
,  // measure 68
0010
0100
0001
1000
0001
0000
0010
0000
0001
0000
1000
0000
0001
0000
0100
0000
,  // measure 69
1000
0010
0100
0001
1000
0000
0001
0000
1000
0000
0001
0000
0100
0000
0010
0000
,  // measure 70
1000
0100
0001
0010
0100
0000
0010
0000
0001
0000
1000
0000
0001
0000
0100
0000
,  // measure 71
0010
0001
1000
0001
0100
0000
0001
0000
0100
0000
0010
0000
1000
0100
0001
0000
,  // measure 72
1000
0000
0100
0001
0010
0000
0001
0100
0010
0000
0001
0100
1000
0100
0001
1000
,  // measure 73
0001
0000
0000
0000
0000
0000
0010
0000
0000
0000
0000
0000
0000
0000
0000
0000
0000
0000
0000
0000
0000
0000
0000
0000
0000
0000
0000
0000
0000
0000
0000
0000
0000
0000
0000
0000
0001
0000
0000
0000
0000
0000
0000
0000
0000
0000
0000
0000
1000
0000
0000
0000
0000
0000
0000
0000
0000
0000
0000
0000
0100
0000
0000
0000
0000
0000
0000
0000
0000
0000
0000
0000
0001
0000
0000
0000
0000
0000
0000
0000
0000
0000
0000
0000
0010
0000
0000
0000
0000
0000
0000
0000
0000
0000
0000
0000
0100
0000
0000
0000
0000
0000
0000
0000
0000
0000
0000
0000
0001
0000
0000
0000
0000
0000
0000
0000
0000
0000
0000
0000
0000
0000
0000
0000
0000
0000
0000
0000
0000
0000
0000
0000
1000
0000
0000
0000
0000
0000
0000
0000
0000
0000
0000
0000
0100
0000
0000
0000
0000
0000
0000
0000
0000
0000
0000
0000
0001
0000
0000
0000
0000
0000
0000
0000
0000
0000
0000
0000
0000
0000
0000
0000
0000
0000
0000
0000
0010
0000
0000
0000
0000
0000
0000
0000
0000
0000
0000
0000
0000
0000
0000
0000
,  // measure 74
0100
0000
0000
0000
0010
0000
0000
0000
0001
0000
0000
0000
0100
0000
0000
0000
2000
0000
3000
0000
0000
0000
0001
0100
0010
0000
0010
0000
0001
0000
0100
0000
,  // measure 75
1000
0100
0000
0000
0010
0000
0001
0100
0000
0001
1000
0100
0001
1000
0001
0010
,  // measure 76
0200
0000
0000
0000
,  // measure 77
0000
0000
0000
0300
,  // measure 78
0001
0100
0010
0001
1000
0001
0100
0010
0001
1000
0001
0100
0010
0001
1000
0001
,  // measure 79
1000
0100
0001
0000
0010
0100
0001
0000
1000
0100
0001
0000
0010
0100
0001
0000
,  // measure 80
1000
0100
0001
0000
0010
0100
0001
0000
1000
0100
0001
0000
0010
0100
0001
0000
,  // measure 81
1000
0100
0001
0000
0010
0100
0001
0000
1000
0100
0001
0000
0010
0100
0001
0000
,  // measure 82
0001
0100
0010
0001
1000
0001
0100
0010
0001
1000
0001
0000
1001
0000
0000
0000
,  // measure 83
1001
0000
0000
0000
0000
0000
0001
0010
0100
0000
0001
0000
1000
0000
0000
0000
0001
0000
0100
0000
1000
0000
0100
0001
0010
0000
0100
0000
0001
0000
1000
0000
,  // measure 84
0100
0000
0001
0000
0010
0000
0001
0000
1000
0000
0100
0000
0001
0000
0000
0000
1000
0100
0001
0000
0100
0000
0001
0000
1000
0010
0100
0010
0001
0100
1000
0001
,  // measure 85
0010
0001
0100
0010
0001
0100
1000
0000
0010
0100
0001
0010
1000
0001
0100
0000
,  // measure 86
0100
0000
0010
0000
0001
0000
1000
0000
0001
0000
0100
0000
1000
0000
0100
0000
0001
1000
0100
0001
1000
0001
0010
0100
0001
1000
0001
0010
0100
0001
1000
0001
,  // measure 87
0010
0100
0001
1000
0001
0000
0010
0000
0100
0000
0001
0000
1000
0000
0000
0000
,  // measure 88
0001
1000
0001
0100
1000
0000
0100
0001
1000
0010
0100
0001
0010
0100
0001
0000
,  // measure 89
0010
0100
0001
1000
0001
0000
0010
0000
0100
0000
0010
0000
0100
0000
0001
0000
,  // measure 90
1000
0100
0001
1000
0001
0010
0100
0001
1000
0100
0010
0010
0001
0100
1000
0000
,  // measure 91
0010
0100
0001
1000
0001
0000
0010
0000
0010
0000
0100
0000
1000
0000
0100
0001
,  // measure 92
0010
0100
0001
1000
0001
0000
0010
0000
0001
0000
1000
0000
0001
0000
0100
0000
,  // measure 93
1000
0010
0100
0001
1000
0000
0100
0000
0010
0000
0001
0000
0100
0000
0010
0000
,  // measure 94
0100
0001
0010
0100
1000
0000
0001
0000
0100
0000
0010
0000
0001
0100
1000
0000
,  // measure 95
0010
0100
0001
1000
0001
0000
0010
0000
0100
0000
0000
0000
0001
0000
0000
0000
,  // measure 96
1000
0100
0001
0100
0001
0000
0010
0000
0100
0000
0001
0000
1000
0000
0001
0000
,  // measure 97
0010
0010
0001
1000
0100
0000
0010
0000
0001
0000
1000
0000
0100
0000
0010
0000
,  // measure 98
0001
0010
0100
1000
0001
0000
0010
0000
0000
0000
0000
0000
0000
0000
0000
0000
;
