#VERSION:0.83;
#TITLE:desire;
#SUBTITLE:;
#ARTIST:Ian Asher & Olly Alexander/ Years & Years;
#TITLETRANSLIT:;
#SUBTITLETRANSLIT:;
#ARTISTTRANSLIT:;
#GENRE:;
#ORIGIN:;
#CREDIT:;
#BANNER:;
#BACKGROUND:;
#PREVIEWVID:;
#JACKET:;
#CDIMAGE:;
#DISCIMAGE:;
#LYRICSPATH:;
#CDTITLE:;
#MUSIC:Ian Asher & Olly Alexander (Years & Years) - Desire (Official Audio).ogg;
#OFFSET:0.000000;
#SAMPLESTART:100.059883;
#SAMPLELENGTH:12.000000;
#SELECTABLE:YES;
#BPMS:0.000=138.000;
#STOPS:0.000=1.500,
68.000=1.700,
256.000=1.700;
#DELAYS:;
#WARPS:;
#TIMESIGNATURES:0.000=4=4;
#TICKCOUNTS:0.000=4;
#COMBOS:0.000=1;
#SPEEDS:0.000=1.000=0.000=0;
#SCROLLS:0.000=1.000;
#FAKES:;
#LABELS:0.000=Song Start;
#BGCHANGES:;
#KEYSOUNDS:;
#ATTACKS:
;

//---------------dance-single - ----------------
#NOTEDATA:;
#CHARTNAME:;
#STEPSTYPE:dance-single;
#DESCRIPTION:;
#CHARTSTYLE:;
#DIFFICULTY:Hard;
#METER:13;
#RADARVALUES:0.577698,0.721204,0.309127,0.082013,0.167181,641.000000,592.000000,49.000000,13.000000,0.000000,0.000000,0.000000,0.000000,0.000000,0.577698,0.721204,0.309127,0.082013,0.167181,641.000000,592.000000,49.000000,13.000000,0.000000,0.000000,0.000000,0.000000,0.000000;
#CREDIT:;
#NOTES:
// measure 0
0000
0000
0000
0000
,  // measure 1
0000
0000
0000
0000
0100
0010
0001
0100
,  // measure 2
1000
0002
0000
0000
0000
0000
0000
0000
,  // measure 3
0000
0000
0000
0000
0003
0010
0001
0100
,  // measure 4
1000
0000
0000
0001
0000
0000
0100
0000
0010
0000
0000
0001
0000
0000
0100
0000
,  // measure 5
2000
0000
0000
3000
0000
0100
0010
0001
,  // measure 6
0100
2000
0000
0000
0000
0000
0000
0000
,  // measure 7
0000
0000
0000
0000
0000
3000
0100
0001
,  // measure 8
1000
0000
0000
0001
0000
0000
0100
0000
0010
0000
0000
0001
0000
0000
0100
0000
,  // measure 9
1000
0000
0000
0000
0000
0000
0001
0100
,  // measure 10
1010
0000
0001
0010
0110
0000
1000
1000
,  // measure 11
1001
0000
0100
0010
0101
0000
0010
0001
,  // measure 12
1000
0010
0001
0100
1000
0000
0100
0001
,  // measure 13
0010
0100
0010
0100
0010
0000
0100
0000
0010
0000
0000
0000
0001
0000
0100
0000
,  // measure 14
1001
0000
0001
0100
1001
0000
0010
0100
,  // measure 15
0110
0000
1000
0100
1100
0000
1000
0001
,  // measure 16
1000
0001
1000
0001
1000
0001
1000
0001
,  // measure 17
2000
0000
0000
0000
,  // measure 18
0000
0000
0000
0000
3000
0010
0001
0100
,  // measure 19
1000
0000
0000
0001
0000
0000
0100
0000
0010
0000
0000
0001
0000
0000
0100
0000
,  // measure 20
2000
0000
0000
0000
3000
0001
0010
0100
,  // measure 21
0001
1000
0001
0100
0010
0001
0100
1000
,  // measure 22
0001
0100
0010
0000
0100
0001
1000
0000
0001
0100
0010
0000
0001
0100
1000
0000
,  // measure 23
0010
0001
1000
0001
0100
0010
0001
1000
,  // measure 24
0001
0100
0010
0001
1000
0001
0010
0100
,  // measure 25
1001
0100
0100
0100
0110
0010
0100
0001
,  // measure 26
1001
0010
0100
0001
1001
0100
0010
0001
,  // measure 27
1000
0001
0010
1000
0100
0000
0001
0000
0010
0000
0001
0000
0100
0000
0010
0000
,  // measure 28
0001
1000
0001
1000
0010
0000
0001
0000
0100
0000
0001
0000
0100
0000
0001
0000
,  // measure 29
1100
0001
0100
0010
1001
0010
0001
0100
,  // measure 30
0101
0100
0001
1000
1001
0001
0100
0001
,  // measure 31
0100
0001
0100
0001
0100
0001
0100
0010
,  // measure 32
1001
0000
0000
0011
0000
0000
0011
0000
1001
0000
0000
0000
1000
0001
1000
0001
,  // measure 33
1000
0010
0001
0100
0010
0001
1000
0001
,  // measure 34
0100
0010
0001
1000
0001
0100
0010
0001
,  // measure 35
1000
0001
0100
0010
0001
1000
0001
0100
,  // measure 36
0010
0001
1000
0001
0100
0010
0010
0100
,  // measure 37
1000
0100
0010
0001
1000
0001
0100
0010
,  // measure 38
0001
0100
0001
0100
0010
0001
1000
0001
,  // measure 39
0100
0010
0001
0100
0001
0100
0010
0001
,  // measure 40
1000
0001
0100
0010
0001
1000
0001
0100
,  // measure 41
0010
0010
0010
0010
0100
0100
0010
0001
,  // measure 42
1000
0001
0100
0010
0001
0100
0001
0100
,  // measure 43
0010
0001
1000
0001
0100
0010
0001
1000
,  // measure 44
0001
0100
0010
0001
0100
0001
0100
0010
,  // measure 45
0001
1000
0001
0100
0010
0001
1000
0001
,  // measure 46
0100
0010
0001
0100
0001
0100
0010
0001
,  // measure 47
1000
0001
0100
0010
0001
1000
0001
0100
,  // measure 48
0010
0001
1000
0001
0100
0010
0001
0100
,  // measure 49
2000
0000
0000
0000
,  // measure 50
0000
0000
0000
0000
3000
0100
0001
0010
,  // measure 51
0100
0000
0000
0001
0000
0000
0100
0000
0010
0000
0000
0001
0000
0000
0100
0000
,  // measure 52
2000
0000
0000
0000
3000
0100
0001
0100
,  // measure 53
2002
0000
0000
0000
,  // measure 54
0000
0000
0000
0000
3003
0010
0100
0001
,  // measure 55
1000
0000
0100
0010
0001
0100
0100
2000
,  // measure 56
0000
0000
0000
0000
0000
3000
0001
0100
,  // measure 57
0110
0000
0100
0001
0101
0000
1000
0100
,  // measure 58
0101
0000
0001
1000
1001
0000
0001
0100
,  // measure 59
0101
0000
0001
1000
1001
0000
0001
0100
,  // measure 60
0101
0000
1000
0001
1001
0000
0100
0001
,  // measure 61
0101
0000
0001
0100
0011
0000
1000
0001
,  // measure 62
1001
0000
0001
0100
0101
0000
0001
0100
,  // measure 63
0011
0101
1100
0101
,  // measure 64
2002
0000
0000
0000
,  // measure 65
0000
0000
0000
0000
3003
0010
0001
0100
,  // measure 66
1000
0000
0000
0001
0000
0000
0100
0000
0010
0000
0000
0001
0000
0000
0100
0000
,  // measure 67
2000
0000
0000
0000
3000
0010
0001
0100
,  // measure 68
1000
0010
0001
0100
0010
0001
0100
1000
,  // measure 69
0001
0100
0010
0000
0001
0100
1000
0000
0001
0010
0100
0000
0010
0001
0100
0000
,  // measure 70
1000
0010
0100
0001
0100
0010
0001
1000
,  // measure 71
0001
0100
0010
0001
1000
0001
0100
0010
,  // measure 72
1001
0001
0010
0100
0101
1000
0100
0001
,  // measure 73
0110
0100
0001
1000
1001
0010
0100
0001
,  // measure 74
0100
0010
0100
0010
0100
0000
0001
0000
1000
0000
0001
0000
0100
0000
0001
0000
,  // measure 75
0100
0001
0100
0001
0100
0000
0001
0000
0100
0000
0001
0000
0100
0000
0010
0000
,  // measure 76
1001
0010
0001
0100
0101
0001
0100
0010
,  // measure 77
1001
0001
0100
0010
1001
1000
0001
1000
,  // measure 78
0001
1000
0001
1000
0001
1000
0001
1000
,  // measure 79
0001
0100
0010
0001
1000
0001
0100
0010
,  // measure 80
0100
0001
0100
0001
0100
0000
0001
0000
1000
0000
0001
0000
0100
0000
0010
0000
,  // measure 81
1000
0001
1000
0001
1000
0000
0010
0000
0100
0000
0001
0000
0100
0000
0010
0000
,  // measure 82
0001
0010
0001
0010
0001
0000
0010
0000
0100
0000
0001
0000
0100
0000
0010
0000
,  // measure 83
1000
0001
1000
0001
1000
0000
0001
0000
1000
0000
0001
0000
0100
0000
0010
0000
,  // measure 84
0100
0001
0010
0001
1000
0000
0001
0000
1000
0000
0001
0000
0100
0000
0010
0000
,  // measure 85
1000
0100
0001
0010
0100
0000
1000
0000
0001
0010
0100
0000
0010
0100
0001
0100
,  // measure 86
1000
0100
0001
0010
0100
0000
0010
0000
0001
0010
0001
0010
0100
0000
0000
0000
,  // measure 87
1001
0000
0000
0110
0000
0000
0101
0000
0000
0000
0000
0000
0001
1000
0001
1000
;
