#VERSION:0.83;
#TITLE:dancing with your eyes closed;
#SUBTITLE:;
#ARTIST:Jane Remover;
#TITLETRANSLIT:;
#SUBTITLETRANSLIT:;
#ARTISTTRANSLIT:;
#GENRE:;
#ORIGIN:;
#CREDIT:;
#BANNER:;
#BACKGROUND:;
#PREVIEWVID:;
#JACKET:;
#CDIMAGE:;
#DISCIMAGE:;
#LYRICSPATH:;
#CDTITLE:;
#MUSIC:Jane Remover, Dancing with Your Eyes Closed (Lyrics).mp3;
#OFFSET:0.000000;
#SAMPLESTART:100.059883;
#SAMPLELENGTH:12.000000;
#SELECTABLE:YES;
#BPMS:0.000=152.000,
224.000=76.000,
238.000=152.000,
241.000=304.000,
242.000=152.000,
370.000=76.000,
401.000=152.000,
496.000=608.000,
568.000=304.000,
576.000=152.000,
580.000=76.000,
581.000=48.000,
582.000=24.000;
#STOPS:0.000=0.250,
241.000=0.150,
373.000=0.800,
431.000=0.450;
#DELAYS:;
#WARPS:;
#TIMESIGNATURES:0.000=4=4;
#TICKCOUNTS:0.000=4;
#COMBOS:0.000=1;
#SPEEDS:0.000=1.000=0.000=0;
#SCROLLS:0.000=1.000;
#FAKES:;
#LABELS:0.000=Song Start;
#BGCHANGES:;
#KEYSOUNDS:;
#ATTACKS:
;

//---------------dance-single - ----------------
#NOTEDATA:;
#CHARTNAME:;
#STEPSTYPE:dance-single;
#DESCRIPTION:;
#CHARTSTYLE:;
#DIFFICULTY:Hard;
#METER:13;
#RADARVALUES:0.519687,0.977202,0.069209,0.043256,0.164372,841.000000,825.000000,16.000000,10.000000,0.000000,0.000000,0.000000,0.000000,0.000000,0.519687,0.977202,0.069209,0.043256,0.164372,841.000000,825.000000,16.000000,10.000000,0.000000,0.000000,0.000000,0.000000,0.000000;
#CREDIT:;
#NOTES:
// measure 0
0000
0000
0000
0000
,  // measure 1
0000
0000
0000
0000
,  // measure 2
0000
0000
0000
0000
,  // measure 3
0000
0000
0000
0000
,  // measure 4
0000
0000
0000
0000
,  // measure 5
0000
0000
0000
0000
,  // measure 6
0000
0000
0000
0000
,  // measure 7
0000
0000
2002
3003
,  // measure 8
1000
0001
0100
0010
,  // measure 9
0001
0100
0001
0100
,  // measure 10
0010
0001
1000
0001
,  // measure 11
0100
0010
0001
1000
,  // measure 12
0001
0100
0010
0001
,  // measure 13
1000
0001
0100
0010
,  // measure 14
0001
1000
0001
0100
,  // measure 15
0010
0000
0100
0001
0000
0010
0001
0100
,  // measure 16
0010
0001
0100
0001
0100
0010
0001
0100
,  // measure 17
1000
0100
0010
0001
0100
0001
0100
0010
,  // measure 18
0001
1000
0001
0100
0010
0001
0100
0001
,  // measure 19
0100
0010
0001
1000
0001
0100
0010
1000
,  // measure 20
0001
0100
0010
0001
0100
0001
0100
0010
,  // measure 21
1000
0001
1000
0001
1000
0000
0100
0000
0010
0000
0001
0000
1000
0000
0001
0000
,  // measure 22
0100
0010
0001
0100
0001
0100
0010
0001
,  // measure 23
1000
0001
0100
0010
0001
0100
1000
0000
,  // measure 24
0010
0001
0100
0010
0001
1000
0100
0000
,  // measure 25
0010
0001
0100
0010
0001
1000
0100
0000
,  // measure 26
0010
0001
0100
0010
0001
1000
0100
0000
,  // measure 27
0010
0100
0001
0100
0010
0001
0100
0000
,  // measure 28
0010
0001
0100
0010
0001
0100
1000
0000
,  // measure 29
0010
0001
0100
0010
1000
0100
0001
0000
,  // measure 30
0010
0001
0100
0010
0001
0100
1000
0000
,  // measure 31
0010
0100
0001
0100
0010
0001
1000
0100
,  // measure 32
0000
0001
1000
0100
0010
0001
0100
1000
,  // measure 33
0000
0000
0000
0000
0000
0100
0001
1000
,  // measure 34
0000
0010
0001
0100
0010
0001
0100
1000
,  // measure 35
0000
0000
0100
0001
0100
0010
0001
0100
,  // measure 36
1000
0100
0001
0010
0100
0001
2000
0000
,  // measure 37
0000
0000
3000
0000
0010
0001
0100
0000
,  // measure 38
0000
0010
0001
0100
0010
0001
0100
1000
,  // measure 39
0000
0010
0100
0010
0001
1000
0100
0000
,  // measure 40
0100
0001
1000
0001
0010
0100
0001
0000
,  // measure 41
0010
0100
0001
1000
0001
0010
0100
0000
,  // measure 42
0010
0001
0100
0010
0001
0100
1000
0000
,  // measure 43
0010
0001
0100
0010
0001
0100
1000
0000
,  // measure 44
0100
0010
0001
0100
0010
0001
0100
0000
,  // measure 45
0010
0001
0100
0010
0001
1000
0100
0000
,  // measure 46
0010
0001
0100
0010
0001
1000
0100
0000
,  // measure 47
0001
0100
0010
0001
1000
0001
0100
0000
,  // measure 48
0010
0000
0100
0010
0001
1000
0100
0100
,  // measure 49
0010
0100
0001
0100
0010
0001
1000
0001
,  // measure 50
0100
0010
0001
0100
0001
0100
0010
0001
,  // measure 51
1000
0001
0100
0010
0001
0100
0001
0100
,  // measure 52
0010
0001
1000
0001
0100
0010
0001
0100
,  // measure 53
0001
0100
0010
0001
1000
0001
0100
0010
,  // measure 54
0001
1000
0001
0100
0010
0001
1000
0001
,  // measure 55
0100
0000
0010
0000
0001
0000
0100
0000
1000
0001
1000
0001
1000
0100
1000
0100
,  // measure 56
1000
0000
0001
0100
0001
0000
0010
0100
0010
0100
0010
0001
0100
0010
0001
0100
,  // measure 57
1000
0010
0001
0100
1000
0000
0100
0010
0100
0010
0100
0001
0100
0010
0001
0100
,  // measure 58
1000
0010
0001
1000
0100
0000
0100
0010
0100
0001
0100
1000
0100
0001
0100
0010
,  // measure 59
0100
0010
0001
1000
0100
0000
0010
0100
0001
0000
0010
0000
0001
0000
0010
0000
,  // measure 60
0001
0010
0002
0000
1003
0010
0100
0001
,  // measure 61
0100
0001
0100
0001
0100
0010
0001
1000
,  // measure 62
0001
0100
0010
0000
1001
0000
0000
0000
,  // measure 63
0000
0001
0100
0010
0001
1000
0001
0100
,  // measure 64
0010
1000
1001
0000
,  // measure 65
0001
0100
0010
0001
1000
0001
0100
0010
,  // measure 66
0001
1000
0100
0000
1001
0000
0000
0000
,  // measure 67
0001
0100
0010
0100
0010
0001
1000
0001
,  // measure 68
0100
0010
0001
0000
1001
0100
0010
0001
,  // measure 69
1000
0100
0001
0010
0100
0001
0100
0010
,  // measure 70
0100
0001
0100
0010
1001
0010
0100
0010
,  // measure 71
0001
1000
0001
0100
0010
0001
0100
0001
,  // measure 72
0100
0010
1000
0001
1001
0100
0010
0001
,  // measure 73
1000
0001
0100
0010
0100
0001
0100
0010
,  // measure 74
0001
0100
1000
0010
0100
0001
0010
0001
,  // measure 75
0100
0010
0010
0001
0100
0001
0100
0010
,  // measure 76
0001
0100
1000
0000
0100
0010
0001
1000
,  // measure 77
0001
0100
0010
0001
0100
0001
0100
0010
,  // measure 78
0001
1000
0001
0100
0010
0001
1000
0001
,  // measure 79
0100
0010
0001
0100
0001
0100
0010
0001
,  // measure 80
1000
0001
0100
0010
0001
1000
0001
0100
,  // measure 81
0010
0001
1000
0001
0100
0010
0001
0100
,  // measure 82
0010
0001
1000
0001
0100
0010
0001
0100
,  // measure 83
0001
0100
0010
0001
1000
0001
0100
0010
,  // measure 84
0001
0100
1000
0100
0001
1000
0001
0010
,  // measure 85
0100
0000
0010
0001
0100
0010
0001
0100
,  // measure 86
1000
0010
0001
0000
0010
0000
0001
0000
,  // measure 87
0100
0000
0010
0000
0100
0001
1000
0000
,  // measure 88
0100
0000
0010
0000
1000
0100
0001
0000
,  // measure 89
1000
0100
0001
0100
,  // measure 90
0010
0100
0001
1000
0001
0000
0010
0100
,  // measure 91
1000
0001
0100
0000
0010
0001
0100
0010
,  // measure 92
0001
0000
0100
0000
1000
0000
0000
0000
0100
0000
0010
0001
0100
0100
0001
0000
,  // measure 93
1000
0010
0001
0100
1000
0000
0100
0001
0010
0010
0001
0100
0010
0001
0100
0010
,  // measure 94
0001
0100
1000
0000
0010
0000
0100
0010
0001
0100
0001
0100
0010
0001
1000
0001
,  // measure 95
0100
0010
0001
0100
1000
0000
0100
0010
0010
0100
0010
0001
1000
0001
0100
0010
,  // measure 96
0001
0100
1000
0000
0010
0000
0100
0010
0001
0100
0010
0001
1000
0001
0100
0010
,  // measure 97
0001
0100
1000
0000
0100
0000
0010
0100
0010
0100
0010
0001
1000
0001
0100
0010
,  // measure 98
0001
0100
1000
0000
0010
0000
0001
0100
0010
0100
0010
0001
0100
0001
0100
0010
,  // measure 99
0001
0100
1000
0000
0010
0000
0100
0010
0001
0100
0010
0001
1000
0001
0100
0010
,  // measure 100
0001
0100
1000
0000
0220
0000
0000
0000
0000
0000
0000
0000
0000
0000
0000
0000
,  // measure 101
0000
0000
0000
0000
,  // measure 102
0000
0000
0000
0000
,  // measure 103
0000
0000
0000
0000
,  // measure 104
0330
0010
0001
0100
,  // measure 105
0001
0100
0010
0001
,  // measure 106
1000
0001
0100
0010
,  // measure 107
0001
0100
1000
0001
,  // measure 108
1001
0000
0000
0000
0100
0001
1000
0001
,  // measure 109
0010
0001
0100
0010
0001
0100
1000
0000
,  // measure 110
0110
0000
0001
1000
0100
0001
0010
0100
,  // measure 111
0010
0001
0100
0010
0001
0100
1000
0000
,  // measure 112
0000
0000
0000
0000
0010
0100
0001
1000
,  // measure 113
0100
0001
0100
0010
0001
0100
1000
0000
,  // measure 114
0000
0000
0000
0000
0001
0100
1000
0001
,  // measure 115
0100
0010
0001
1000
0001
0100
0010
0100
,  // measure 116
2002
0000
3003
0000
0010
0100
0010
0001
,  // measure 117
0100
0001
0100
0010
0001
0100
1000
0100
,  // measure 118
0000
0000
0000
0000
0010
0001
0100
0010
,  // measure 119
0001
1000
0001
0100
0010
0001
1000
0100
,  // measure 120
0000
0000
0000
0000
0001
0100
1000
0010
,  // measure 121
0100
0000
0001
1000
0011
0000
0110
0000
,  // measure 122
0000
0000
0000
0000
0100
0001
0010
0100
,  // measure 123
0001
0000
1000
0100
0101
0000
0110
0000
,  // measure 124
2002
0000
0000
0000
,  // measure 125
0000
0000
0000
0000
,  // measure 126
0000
0000
0000
0000
,  // measure 127
0000
0000
0000
0000
,  // measure 128
0000
0000
0000
0000
,  // measure 129
0000
0000
0000
0000
,  // measure 130
0000
0000
0000
0000
,  // measure 131
0000
0000
0000
0000
,  // measure 132
0000
0000
0000
0000
,  // measure 133
0000
0000
0000
0000
,  // measure 134
0000
0000
0000
0000
,  // measure 135
0000
0000
0000
0000
,  // measure 136
0000
0000
0000
0000
,  // measure 137
0000
0000
0000
0000
,  // measure 138
0000
0000
0000
0000
,  // measure 139
0000
0000
0000
0000
,  // measure 140
0000
0000
0000
0000
,  // measure 141
0000
0000
0000
0000
,  // measure 142
0000
0000
0000
0000
,  // measure 143
0000
0000
0000
0000
,  // measure 144
0000
0000
0000
0000
,  // measure 145
0000
0000
0000
3003
;
