#TITLE:crew;
#SUBTITLE:;
#ARTIST:Goldlink, Ft Shy Glizzy & Brent Fiyaz;
#TITLETRANSLIT:;
#SUBTITLETRANSLIT:;
#ARTISTTRANSLIT:;
#GENRE:;
#CREDIT:;
#BANNER:;
#BACKGROUND:;
#LYRICSPATH:;
#CDTITLE:;
#MUSIC:GoldLink - Crew (Lyrics) ft. Brent Faiyaz, Shy Glizzy.mp3;
#OFFSET:0.000000;
#SAMPLESTART:100.059883;
#SAMPLELENGTH:12.000000;
#SELECTABLE:YES;
#BPMS:0.000000=130.000000
;
#STOPS:0.000000=0.300000,
28.000000=1.900000
;
#BGCHANGES:;
#KEYSOUNDS:;
#ATTACKS:;

//---------------dance-single - ----------------
#NOTES:
     dance-single:
     :
     Hard:
     12:
     0.466496,0.728452,0.195370,0.111640,0.153505,585.000000,550.000000,35.000000,20.000000,0.000000,0.000000,0.466496,0.728452,0.195370,0.111640,0.153505,585.000000,550.000000,35.000000,20.000000,0.000000,0.000000:
0000
0000
0000
0000
,
0000
0000
0000
0000
,
0000
0000
0000
0000
,
0000
0000
0000
0000
,
0001
0000
0000
0100
0010
0000
0000
0001
,
0100
0000
0000
1000
0001
0000
0000
0100
,
0001
0000
0000
0100
0010
0000
0000
0001
,
1000
0000
0010
0001
0100
0000
1000
0000
,
0010
0000
0100
1000
0001
0100
0010
0001
,
0200
0000
0000
0000
,
0010
0000
0010
0000
0300
0100
0001
1000
,
0001
0100
0010
0001
1000
0000
0100
0000
,
0010
0000
0001
0010
0100
0010
0001
0100
,
2000
0000
0000
0000
,
0100
0000
3100
0010
0001
0100
0010
0002
,
0003
0100
0020
0000
0000
0000
0000
0000
,
0000
0030
0001
1000
0100
0001
0010
0100
,
0202
0000
0000
0303
1000
0001
0100
0010
,
2002
0000
0000
0000
0000
0000
3003
0000
0010
0000
0000
0001
0000
0000
2000
0000
,
0000
0000
0000
0000
,
0000
0000
0000
0000
0000
0000
3000
0000
0001
0000
0000
0100
0000
0000
2000
0000
,
0000
0000
3000
0100
,
0000
0000
0000
0000
0100
0000
0000
0000
0100
0001
1000
0000
0100
0001
0010
0000
,
0100
0000
0001
0010
0100
0000
0011
0000
1000
0000
0100
0010
0100
0000
0011
0000
,
1000
0000
0000
0000
0010
0000
0000
0000
0001
0100
0010
0001
1000
0000
0100
0000
,
0010
0100
0001
1000
0001
0000
0010
0100
0001
0000
0010
0100
0001
0000
1000
0100
,
0001
0000
0010
0000
0100
0000
0000
0000
0100
0001
0100
0010
1000
0100
0001
0010
,
0100
0000
0010
0000
0001
0000
1000
0000
0100
0010
0100
0001
0100
1000
0100
0001
,
0010
0000
0100
0000
1000
0000
0100
0000
0001
0010
0100
0000
1000
0000
0100
0001
,
0010
0000
0001
0100
0010
0000
0001
0100
0010
0000
0100
1000
0001
0000
0001
1000
,
0100
0000
0010
0000
0100
0000
0001
0000
1000
0000
0001
1000
0010
0000
0100
0010
,
0001
0000
0000
0000
0100
0000
0000
0000
0100
0010
0001
0100
1000
0000
0010
0000
,
0100
0000
0000
0000
0010
0000
0000
0000
1000
0000
0100
0000
0001
0010
0100
0000
,
0010
0000
0001
0000
0100
0000
0010
0000
1000
0001
0010
0100
0001
1000
0001
0010
,
0100
0000
0001
0000
0010
0000
0000
0000
0010
0001
0100
0010
0001
0000
0100
0000
,
1000
0000
0100
0000
0001
0000
0000
0000
0100
0010
0001
0100
1000
0000
0001
0000
,
0100
0000
0010
0000
0001
0000
0000
0000
1000
0001
0010
0000
0100
0000
0001
0000
,
0010
0001
0100
0001
0100
0010
0001
0100
,
1000
0000
0000
0000
0000
0000
0000
0000
0100
0010
0001
0100
1000
0000
0010
0000
,
0100
0000
0100
0000
0010
0000
0000
0000
1000
0100
0001
0010
0100
0000
0010
0000
,
0100
0000
0001
0000
1000
0000
0100
0000
0001
0010
0100
0001
1000
0000
0001
0000
,
0010
0100
0010
0001
0100
0010
0001
0100
,
1000
0000
0100
0000
0010
0000
0000
0000
0100
0000
0001
1000
0100
0001
0010
0100
,
0001
0000
0010
0000
0100
0000
0000
0000
0100
0010
0001
0100
1000
0000
0010
0100
,
0001
0010
0010
0000
0001
1000
0001
0100
,
0100
0010
1100
0110
0110
0101
0110
1100
,
0110
0110
0101
0110
1100
0110
0101
0000
,
1001
0000
0100
0010
1001
0000
0010
0001
,
1000
0001
0010
0100
1001
0010
0100
0001
,
1001
0000
0100
0010
1001
0000
0010
0001
,
0100
0001
0100
0010
1001
0000
0100
0001
,
0100
0010
0001
0100
1100
0000
0010
0001
,
1000
0001
0100
0010
1001
0000
0010
0001
,
1000
0001
0100
0010
1001
0000
0101
0100
,
0010
0001
0100
0010
1001
0000
0010
0001
,
0100
0001
0100
0010
0001
1000
0001
0100
,
0010
0001
1000
0001
0100
0010
0101
0000
,
0110
0000
0000
0001
0100
0010
0001
1000
,
0001
0100
0010
0001
1000
0001
0100
0010
,
0001
0100
0001
0100
0010
0001
1000
0001
,
0100
0010
0001
0100
0001
0100
0010
0001
,
1000
0001
0100
0010
0001
0100
0001
0100
,
0010
0001
1000
0001
0100
0010
0001
1000
,
0001
0100
0010
0001
1000
0001
0100
0010
,
0001
1000
0001
0100
0010
0100
1000
0001
,
0010
0100
0001
1000
0001
0100
0010
0002
,
0003
1000
0010
0001
0100
0010
0001
0100
,
0001
0100
0010
0001
1000
0001
0100
0010
,
0001
1000
0001
0100
0010
0001
0010
0100
,
0001
0010
0001
0100
0010
0001
0100
0001
,
0100
0010
0001
1000
0001
0100
0010
0001
,
0100
0010
0110
0001
1000
0000
0101
0000
,
0100
0010
0100
0010
0001
0100
1000
0100
,
0002
0000
0000
0000
,
1000
0000
1000
0000
0003
0100
0001
1000
,
0001
0010
0010
0001
1000
0000
0100
0000
,
0100
0010
0001
1000
0001
0100
0010
0001
,
0200
0000
0000
0000
,
0010
0000
0310
0000
0100
0010
0001
0100
,
0020
0000
0000
0030
,
0100
0000
0100
0001
1000
0001
0010
0100
,
2002
0000
3003
0000
0010
0100
0001
1000
,
2002
0000
0000
0000
0000
0000
3003
0000
0010
0000
0000
0100
0000
0000
0001
0000
,
0000
0020
0000
0030
,
0100
0000
0000
0000
0100
0000
0000
0000
0001
0000
0000
1000
0000
0000
0100
0000
,
0000
0020
0000
0030
,
0010
0000
0010
0000
0000
0000
0000
0001
,
0011
0000
0000
0000
;

//---------------dance-single - ----------------
#NOTES:
     dance-single:
     :
     Medium:
     8:
     0.347679,0.415162,0.150714,0.117222,0.000000,436.000000,409.000000,27.000000,21.000000,0.000000,0.000000,0.347679,0.415162,0.150714,0.117222,0.000000,436.000000,409.000000,27.000000,21.000000,0.000000,0.000000:
0000
0000
0000
0000
,
0000
0000
0000
0000
,
0000
0000
0000
0000
,
0000
0000
0000
0000
,
0010
0000
0100
0000
,
0001
0000
1000
0000
,
0100
0000
0001
0000
,
0010
0001
0100
1000
,
0010
0000
0010
0000
0100
0010
0100
0001
,
2000
0000
0000
0000
,
0100
3100
0000
0000
,
0001
0100
0001
1000
,
0100
0000
0010
0000
0001
0010
1000
0100
,
0200
0000
0000
0300
,
0010
0010
1000
0100
,
0002
0000
0000
0003
,
0010
0010
0100
0001
,
2002
3003
0010
0100
,
2002
3003
0020
0000
,
0000
0000
0000
0000
,
0000
0000
0200
0000
,
0000
0000
0000
0000
,
0000
0000
0330
0000
0001
0100
0010
0001
,
0100
0001
0100
0010
0001
1000
0001
0100
,
0010
0000
0010
0000
0001
0100
0001
0100
,
0001
0100
0010
0001
1000
0001
0100
0010
,
0001
0100
1000
0000
0010
0001
0100
0010
,
0001
0100
1000
0000
0010
0001
0100
0010
,
0001
0100
1000
0000
0001
0100
0010
0001
,
1000
0001
0100
0010
0001
1000
0001
0100
,
0010
0001
1000
0001
0100
0010
0001
0100
,
1000
0000
0001
0100
0001
0100
0010
0001
,
1000
0000
0100
0000
0100
0010
0001
0100
,
0001
0100
0010
0001
1000
0001
0100
0010
,
0001
1000
0100
0000
0100
0010
0001
0100
,
1000
0000
0100
0000
0001
0100
0010
0001
,
1000
0000
0100
0000
0100
0010
0100
0001
,
0010
0001
1000
0001
0100
0010
0001
0100
,
1000
0000
0010
0000
0100
0001
0100
0001
,
0100
0000
0100
0000
0010
0001
1000
0001
,
0100
0000
0100
0000
0010
0001
0100
0001
,
0100
0010
0001
1000
0001
0100
0010
0001
,
1000
0000
0100
0000
0100
0010
0001
0100
,
1000
0000
0001
0000
0100
0010
0001
0100
,
1000
0000
0100
0000
0001
1000
0001
0100
,
0010
1100
0110
0101
,
0110
1100
0110
0101
,
1001
0000
0100
0000
0110
0000
0001
0100
,
1000
0100
0101
1000
,
1001
0000
0100
0000
0101
0000
0010
0100
,
0001
0000
0100
0000
0101
0000
0100
0001
,
1000
0000
0100
0000
0101
0000
0001
0100
,
1000
0000
0100
0000
0110
0000
0001
0100
,
1000
0010
0110
0001
,
0100
0010
1001
0100
,
1100
0000
0101
0000
,
0010
0010
0010
1001
,
0110
0000
0001
0100
0010
0001
1000
0001
,
0100
0010
0001
1000
0001
0100
0010
0001
,
1000
0001
0100
0010
0001
1000
0001
0100
,
0010
0001
1000
0001
0100
0010
0001
1000
,
0001
0100
0010
0001
1000
0001
0100
0010
,
0001
1000
0001
0100
0010
0001
1000
0001
,
0100
0010
0001
1000
0001
0100
0010
0001
,
0100
0001
0100
0010
0001
1000
0001
0100
,
0010
0001
1000
0001
0100
0010
0100
0002
,
0003
0010
0001
0100
0010
0001
1000
0001
,
0100
0010
0001
0100
0001
0100
0010
0001
,
1000
0001
0100
0010
0001
0100
0001
0100
,
0010
0001
1000
0001
0100
0010
0001
1000
,
0001
0100
0010
0001
1000
0001
0100
0010
,
0001
0100
1000
0100
,
0010
0000
0010
0000
0100
0010
0001
0100
,
2000
0000
0000
0000
,
0100
3100
0100
0001
,
0100
0001
1100
0100
,
0001
0100
0001
0100
,
0020
0000
0000
0030
,
0010
0010
0100
0001
,
2000
0000
0000
3000
,
0100
0100
0001
0100
,
0202
0303
0010
0100
,
0202
0303
1000
0100
,
0020
0000
0000
0030
,
0100
0100
0001
0010
,
0200
0000
0000
0300
,
0010
0010
0000
2002
,
0000
0000
3003
0000
;

//---------------dance-single - ----------------
#NOTES:
     dance-single:
     :
     Easy:
     5:
     0.240026,0.412789,0.156296,0.111640,0.000000,301.000000,273.000000,28.000000,20.000000,0.000000,0.000000,0.240026,0.412789,0.156296,0.111640,0.000000,301.000000,273.000000,28.000000,20.000000,0.000000,0.000000:
0000
0000
0000
0000
,
0000
0000
0000
0000
,
0000
0000
0000
0000
,
0000
0000
0000
0000
,
0010
0000
0100
0000
,
0001
0000
1000
0000
,
0100
0000
0001
0000
,
0010
0100
0001
1000
,
0001
0010
0001
1000
,
0020
0000
0000
0000
,
0100
0100
0000
0030
,
1000
0100
0001
0010
,
0100
0010
0001
1000
,
0020
0000
0000
0000
,
0100
0130
0001
1000
,
0200
0000
0000
0000
,
0010
0010
0000
0300
,
2002
0000
0000
3003
,
0202
0000
0000
0303
,
2000
0000
0000
0000
,
0000
0000
0000
0000
,
0002
0000
0000
0000
,
0000
3003
0010
0100
,
0001
0000
1000
0100
0001
0000
0010
0100
,
0001
1000
0100
0001
,
0010
0001
0100
0010
,
0001
0100
1000
0000
0010
0000
0100
0000
,
0001
1000
0100
0000
0001
0000
0010
0000
,
0100
0001
0010
0000
1000
0000
0100
0000
,
0001
0100
0100
0010
,
0001
0100
1000
0010
0100
0010
0100
0001
,
1000
0000
0010
0000
0100
0010
0001
0100
,
1000
0100
0010
0001
,
0100
0001
0100
0010
,
0001
0100
1000
0000
0010
0100
0001
1000
,
0001
0000
0010
0000
0100
0010
0001
0100
,
1000
0000
1000
0000
0001
0000
0100
0001
,
0010
0000
0001
0100
1000
0000
0001
0100
,
0010
0000
1000
0000
0100
0001
0100
0001
,
0100
0000
0010
0000
0100
0010
0001
0100
,
1000
0000
0001
0000
0100
0001
0010
0001
,
1000
0001
0100
0010
0001
0100
0001
0100
,
1000
0000
0010
0000
0100
0010
0001
1000
,
0100
0000
0010
0000
0100
0010
0001
0100
,
1000
0100
0001
0100
,
0010
0001
1000
0001
,
0100
0001
0100
0010
,
0110
0000
1001
0000
,
0010
0100
0101
0000
,
0110
0000
1001
0000
,
0010
0100
0101
0000
,
1000
0100
1100
0000
,
0001
0100
0101
0000
,
0010
0100
0110
0010
,
0100
0001
0101
0000
,
1100
0000
0101
0000
,
0010
0100
0100
0101
,
1100
0000
0010
0000
,
0100
0000
0010
0000
,
0001
0000
0100
0000
,
1000
0000
0001
0000
,
0100
0000
0000
0000
0010
0000
1000
0001
,
1000
0001
1000
0001
1000
0001
1000
0001
,
1000
0001
1000
0001
1000
0001
1000
0001
,
1000
0001
1000
0001
1000
0001
1000
0000
,
0100
0000
0010
0000
,
0110
0000
1010
0000
,
0100
0000
0110
0000
,
0010
0000
0001
0000
,
0101
0000
1000
0000
,
0101
0000
0110
0000
,
0010
0110
0010
0110
,
0100
0100
0001
1000
,
0002
0000
0000
0000
,
1000
1000
0000
0003
,
0100
0001
0100
0001
,
1000
1000
0100
0001
,
0020
0000
0000
0000
,
0100
0100
0000
0030
,
0002
0000
0000
0000
,
1000
1000
0000
0003
,
0220
0000
0000
0330
,
2002
0000
0000
3003
,
0220
0000
0000
0000
,
0000
0000
0000
0330
,
0202
0000
0000
0000
,
0000
0000
0000
0000
,
0303
0000
0000
0000
;

//---------------dance-single - ----------------
#NOTES:
     dance-single:
     :
     Beginner:
     3:
     0.114830,0.237235,0.133968,0.000000,0.000000,144.000000,120.000000,24.000000,0.000000,0.000000,0.000000,0.114830,0.237235,0.133968,0.000000,0.000000,144.000000,120.000000,24.000000,0.000000,0.000000,0.000000:
// measure 0
0000
0000
0000
0000
,  // measure 1
0000
0000
0000
0000
,  // measure 2
0000
0000
0000
0000
,  // measure 3
0000
0000
0000
0000
,  // measure 4
0010
0000
0010
0000
,  // measure 5
0010
0000
0010
0000
,  // measure 6
0010
0000
0100
0000
,  // measure 7
0100
0000
0000
0000
,  // measure 8
0000
0000
0000
0000
,  // measure 9
1000
0000
0000
0000
,  // measure 10
0000
0000
0000
0000
,  // measure 11
0001
0000
0000
0000
,  // measure 12
0100
0000
0000
0000
,  // measure 13
0010
0000
0000
0000
,  // measure 14
0000
0000
0000
0000
,  // measure 15
1000
0000
0000
0000
,  // measure 16
0000
0000
0000
0000
,  // measure 17
0001
0000
0000
0000
,  // measure 18
0010
0000
0000
0000
,  // measure 19
0100
0000
0000
0000
,  // measure 20
0000
0000
0000
0000
,  // measure 21
0010
0000
0000
0000
,  // measure 22
0000
0000
0000
0000
,  // measure 23
1000
0000
0010
0000
,  // measure 24
0001
0000
0100
0000
,  // measure 25
0001
0000
1000
0000
,  // measure 26
0100
0100
0000
0000
,  // measure 27
1000
1000
0000
0000
,  // measure 28
0100
0100
0000
0000
,  // measure 29
0001
0000
0100
0000
,  // measure 30
0010
0010
0010
0010
,  // measure 31
0010
0000
0100
0100
,  // measure 32
0100
0000
0001
0001
,  // measure 33
0001
0001
0001
0001
,  // measure 34
0001
0001
0001
0001
,  // measure 35
0001
0000
1000
1000
,  // measure 36
1000
0000
0100
0000
,  // measure 37
0010
0000
0001
0000
,  // measure 38
1000
0000
0100
0100
,  // measure 39
0100
0000
0010
0010
,  // measure 40
0010
0000
0000
0000
,  // measure 41
1000
0000
0001
0000
,  // measure 42
1000
0000
0100
0100
,  // measure 43
0100
0000
0010
0010
,  // measure 44
0010
0000
0000
0000
,  // measure 45
1001
0000
1001
0000
,  // measure 46
1001
0000
1001
0000
,  // measure 47
0101
0000
0101
0000
,  // measure 48
1001
0000
1001
0000
,  // measure 49
0110
0000
0110
0000
,  // measure 50
1001
0000
1001
0000
,  // measure 51
0110
0000
1001
0000
,  // measure 52
0101
0000
1100
0000
,  // measure 53
0110
0000
0110
0000
,  // measure 54
0101
0000
0000
0000
,  // measure 55
0010
0000
0100
0000
,  // measure 56
0010
0000
0000
0110
,  // measure 57
0110
0000
0001
0000
,  // measure 58
1000
0000
0000
0000
,  // measure 59
0100
0000
0000
0000
,  // measure 60
0010
0000
0000
0000
,  // measure 61
0001
0000
0000
0000
,  // measure 62
0010
0000
0000
0000
,  // measure 63
0100
0000
0000
0000
,  // measure 64
1000
0000
0000
0000
,  // measure 65
0001
0000
0000
0000
,  // measure 66
0000
0000
0000
0000
,  // measure 67
0010
0000
0000
0000
,  // measure 68
0100
0000
0000
0000
,  // measure 69
0001
0000
0000
0000
,  // measure 70
1000
0000
0000
0000
,  // measure 71
0000
0110
0000
0110
,  // measure 72
0000
0000
0110
0000
,  // measure 73
0001
0000
0000
0000
,  // measure 74
0000
0000
0000
0000
,  // measure 75
1000
0000
0000
0000
,  // measure 76
0100
0000
0000
0000
,  // measure 77
0001
0000
0000
0000
,  // measure 78
0000
0000
0000
0000
,  // measure 79
0010
0000
0000
0000
,  // measure 80
0000
0000
0000
0000
,  // measure 81
0100
0000
0000
0000
,  // measure 82
0010
0000
0000
0000
,  // measure 83
0100
0000
0000
0000
,  // measure 84
0000
0000
0000
0000
,  // measure 85
0001
0000
0000
0000
;
