#TITLE:conceited;
#SUBTITLE:;
#ARTIST:Lola Young;
#TITLETRANSLIT:;
#SUBTITLETRANSLIT:;
#ARTISTTRANSLIT:;
#GENRE:;
#CREDIT:;
#BANNER:;
#BACKGROUND:;
#LYRICSPATH:;
#CDTITLE:;
#MUSIC:Lola Young - Conceited.ogg;
#OFFSET:0.000000;
#SAMPLESTART:100.059883;
#SAMPLELENGTH:12.000000;
#SELECTABLE:YES;
#BPMS:0.000000=92.000000
;
#STOPS:0.000000=0.200000
;
#BGCHANGES:0.000=Lola Young - Conceited (Official Video).mp4=1.000=0=0=1=====,
99999=-nosongbg-=1.000=0=0=0 // don't automatically add -songbackground-
;
#KEYSOUNDS:;
#ATTACKS:;

//---------------dance-single - ----------------
#NOTES:
     dance-single:
     :
     Hard:
     11:
     0.445723,0.506748,0.041824,0.568804,0.468427,746.000000,736.000000,10.000000,136.000000,0.000000,0.000000,0.445723,0.506748,0.041824,0.568804,0.468427,746.000000,736.000000,10.000000,136.000000,0.000000,0.000000:
// measure 0
0000
0000
0000
0000
,  // measure 1
0000
0000
0000
0000
,  // measure 2
0100
0000
0010
0000
0000
0000
0200
0301
0000
0000
0010
0000
0000
0000
0200
0301
,  // measure 3
0000
0000
1000
0000
0000
0000
0200
0301
0000
0000
0100
0000
0010
0000
0001
0000
,  // measure 4
0100
0000
1000
0000
0000
0000
0200
0301
0000
0000
1000
0000
0000
0000
0200
0301
,  // measure 5
0000
0000
0010
0000
0000
0000
0020
0130
0000
0000
0001
0000
0010
0000
0100
0000
,  // measure 6
0001
0000
1000
0000
0000
0000
0200
0301
0000
0000
0010
0000
0000
0000
0200
0310
,  // measure 7
0000
0000
0100
0000
0000
0000
0002
1003
0000
0000
0100
0000
0010
0000
0100
0000
,  // measure 8
0001
0000
0010
0000
0000
0000
0200
0301
0000
1000
0100
0000
0001
0000
0020
0130
,  // measure 9
0000
0010
0001
0000
0100
0000
2000
3100
0001
0010
0001
0000
0010
0000
0100
0000
,  // measure 10
0001
0000
1000
0000
0000
0000
0200
0301
0000
0100
1000
0000
0100
0000
2000
3100
,  // measure 11
0001
0000
0100
0000
0010
0000
2000
3100
0001
0000
0100
0000
0010
0000
0200
0000
,  // measure 12
0000
0000
0000
0000
0300
0000
0002
0013
0100
0000
1000
0100
0001
0010
0200
0001
,  // measure 13
0000
0000
0300
0000
0000
0001
0020
0031
0010
0000
1000
0100
0001
0000
0100
0000
,  // measure 14
1000
0000
0100
0000
0000
0000
0020
0130
0001
0000
0100
0010
0001
0100
2000
3100
,  // measure 15
0000
0010
0000
0000
0000
0000
0020
0031
0000
0100
0001
0000
1000
0000
0100
0000
,  // measure 16
0001
0000
0010
0000
0000
0000
0200
0301
0000
1000
0100
0000
0001
0000
0200
0310
,  // measure 17
0000
1000
0001
0000
0010
0000
0200
0301
0000
0000
0100
0000
0010
0000
0001
0000
,  // measure 18
0100
0000
1000
0000
0000
0000
0200
0301
0000
0010
0100
0000
0001
0000
2000
3100
,  // measure 19
0000
0001
0010
0000
0100
0000
0002
0013
0100
0000
0010
0000
0100
0000
2000
0000
,  // measure 20
0000
0000
0000
0000
0000
0000
3200
0301
0010
0000
0100
0001
1000
0001
0020
0100
,  // measure 21
0000
0030
0000
0000
0010
0000
0002
1003
0100
0000
0001
0000
0100
0010
1000
0000
,  // measure 22
0000
0000
0010
0000
0100
0000
0002
1003
0000
0000
0000
0000
0000
0010
0100
0000
,  // measure 23
0100
0000
0010
0000
0001
0000
1000
0100
0020
0000
0000
0000
0130
0000
0000
0000
,  // measure 24
0001
0000
0100
0000
0010
0000
2000
3100
0001
0000
0100
0000
0010
0000
2000
3100
,  // measure 25
0001
0000
0100
0000
0010
0000
2000
3100
0000
0020
0000
0000
0000
0000
0030
0000
,  // measure 26
0001
0000
0100
0000
0010
0000
0002
0103
1000
0000
0010
0000
0001
0000
2000
3001
,  // measure 27
0100
0000
0100
0000
0010
0000
0002
0013
0100
0000
0010
0001
0100
0010
0001
0000
,  // measure 28
0000
0000
0000
0000
0000
0000
0010
0100
0000
0000
0001
1000
0100
0001
0020
1030
,  // measure 29
0000
0100
0000
0000
0000
0000
0001
0020
0030
0000
0100
0001
1000
0000
0100
0000
,  // measure 30
0001
0000
0000
0000
0000
0000
0200
0301
0000
1000
0100
0000
0001
0000
0020
0031
,  // measure 31
0000
0100
0000
0100
0000
0001
0000
0000
,  // measure 32
0100
0000
0010
0000
0001
0000
0200
1300
0010
0000
0100
0000
0001
0000
0002
1003
,  // measure 33
0100
0000
0001
0000
0010
0000
2000
3100
0002
0000
0000
0000
0003
0000
0000
0000
,  // measure 34
0001
0000
1000
0000
0100
0000
0020
0031
0100
0000
0010
0000
0001
0000
0200
0310
,  // measure 35
1000
0000
0001
0000
0010
0000
0002
0013
0100
0001
0100
0010
0001
0100
1000
0000
,  // measure 36
0000
0000
0000
0000
0000
0000
0200
0301
0000
0000
0100
0010
0001
0100
1000
0000
,  // measure 37
0000
0001
0000
0000
0000
0000
0200
0301
0000
0000
0001
0100
1000
0000
0001
0000
,  // measure 38
0000
0000
0000
0000
0000
0000
0200
0301
0000
0010
0100
0000
0001
0000
0010
2000
,  // measure 39
3000
0000
0100
0000
0000
0000
0010
0200
0300
0010
0001
0000
0100
0000
0001
0000
,  // measure 40
1000
0000
0100
0000
0000
0000
0002
0013
0000
0000
0010
0100
0001
0000
2000
3001
,  // measure 41
0000
0100
0001
0010
0100
0000
0020
0031
0000
0000
0010
0000
0001
0000
0100
0000
,  // measure 42
1000
0000
0100
0000
0000
0000
0000
0000
0010
0100
0001
0100
1000
0000
0020
0130
,  // measure 43
0000
0001
1000
0100
0001
0000
0000
0010
0000
0000
0000
0000
0100
0000
1000
0000
,  // measure 44
0000
0000
0100
0000
0000
0001
0020
0130
0001
0000
0010
0100
0001
1000
0002
0013
,  // measure 45
0000
0100
0001
0000
0000
0010
0002
0013
0100
0000
1000
0000
0100
0010
0001
0000
,  // measure 46
0100
0000
0001
0000
1000
0000
0020
0130
0001
0000
0010
0000
0100
0001
2000
3100
,  // measure 47
0000
0010
0000
0000
0000
0001
2000
3100
0000
0100
0001
0000
0010
0000
0100
0000
,  // measure 48
0001
0000
0010
0000
0000
0000
0200
0301
0000
0000
0001
0000
0010
0000
0200
0301
,  // measure 49
0000
0010
0000
0100
0001
0000
0020
1030
0000
0000
0010
0000
0001
0000
0100
0000
,  // measure 50
1000
0000
0100
0000
0000
0000
0002
0013
0000
0001
0010
0000
0100
0000
0000
0001
,  // measure 51
0000
0010
0100
0000
0000
0001
0020
0130
0000
0000
0000
0000
0000
0000
0001
0000
,  // measure 52
2002
0000
0000
0000
3003
0000
0200
0301
0010
0000
0100
0001
1000
0100
0002
0013
,  // measure 53
0100
0000
0000
0000
0000
0010
0200
0301
0010
0000
0100
0000
0001
0010
1000
0000
,  // measure 54
0000
0000
0100
0000
0001
0000
0020
0130
0000
0000
0000
0000
0000
0010
0200
0310
,  // measure 55
0001
0000
0000
0000
1000
0000
0000
0000
0001
0000
0000
0000
0100
0000
0000
0000
0010
0000
0000
0000
1000
0001
1000
0001
1000
0001
1000
0001
1000
0000
0000
0000
,  // measure 56
1001
0000
0100
0000
0001
0000
2000
3010
0001
0000
0100
0000
0010
0000
0200
0301
,  // measure 57
0010
0000
0100
0000
0001
0000
2000
3100
0020
0000
0000
0000
0030
0000
0000
0000
,  // measure 58
1001
0000
0100
0000
0001
0000
0020
0130
0001
0000
1000
0000
0100
0000
0002
0013
,  // measure 59
0010
0000
0001
0000
0100
0000
0020
0130
0001
0000
0100
0010
0001
0100
1000
0000
,  // measure 60
1001
0000
0010
0000
0100
0000
0001
0010
1000
0000
0100
0001
0010
0100
0002
0013
,  // measure 61
1000
0000
0001
0000
0100
0000
0020
0031
0100
0000
0010
0001
1000
0000
0100
0000
,  // measure 62
1001
0000
0010
0000
0100
0000
0002
0013
1000
0001
0100
0000
0100
0000
0002
0013
,  // measure 63
0100
0000
0001
0000
1000
0000
0200
0002
0000
0000
0000
0000
0000
0000
0303
0000
,  // measure 64
1001
0000
0010
0000
0001
0000
2000
3100
0001
0000
0010
0000
0100
0000
0002
0013
,  // measure 65
0001
0000
0100
0000
0001
0000
2000
3001
0020
0000
0000
0000
0030
0000
0000
0000
,  // measure 66
1001
0000
0010
0000
0100
0000
0002
0103
0010
0000
0001
0000
0010
0001
0200
0310
,  // measure 67
0001
0000
0001
0000
0100
0000
0020
0031
0010
0000
0100
0010
0001
0100
1000
0000
,  // measure 68
2002
0000
0000
0000
3003
0000
0200
0301
0010
0000
1000
0100
0001
0010
0200
0301
,  // measure 69
0010
0000
0100
0000
0010
0000
0002
0013
1000
0000
0100
0001
0010
0000
1000
0000
,  // measure 70
2002
0000
0000
0000
3003
0000
0020
0130
0000
0001
0010
0000
0100
0000
0002
1003
,  // measure 71
0010
0000
0100
0000
0010
0000
0100
0001
2002
0000
0000
0000
0000
0000
3003
0000
,  // measure 72
0010
0000
0001
0000
0100
0000
2000
3100
0010
0000
0001
0000
0100
0000
0002
1003
,  // measure 73
0010
0000
0100
0000
0001
0000
1000
0001
0200
0000
0000
0000
0000
0000
0300
0000
,  // measure 74
0001
0000
0100
0000
1000
0000
0200
0301
0010
0000
0001
0000
0000
0000
0020
0130
,  // measure 75
0001
0000
0100
0000
0010
0000
0020
0130
1000
0100
0001
0010
0100
0001
1000
0000
,  // measure 76
0001
0000
0010
0000
0000
0000
0002
1003
0000
0000
0100
0001
0010
0100
0002
0013
,  // measure 77
0000
0100
0001
0000
0000
0000
2000
3100
0000
0000
0001
0010
0100
0000
0001
0000
,  // measure 78
0010
0000
0100
0000
0000
0000
0002
0013
0000
0100
0001
0000
1000
0000
0200
0301
,  // measure 79
0000
0000
0010
0000
0000
0000
0020
0031
0000
0000
0100
0000
0001
0000
1000
0000
,  // measure 80
0001
0000
1000
0000
0000
0000
0200
0301
0000
0000
0010
0000
0000
0000
0200
0301
,  // measure 81
0000
0000
0010
0000
0000
0000
0200
1300
0010
0100
0001
1000
0001
0010
0100
0001
,  // measure 82
0010
0000
0100
0000
0000
0000
0002
0013
0000
0000
1000
0000
0000
0000
0200
0301
,  // measure 83
0000
0000
0010
0000
0100
0001
0020
0130
0001
1000
0010
0001
0100
0010
0001
0100
,  // measure 84
1000
0000
0100
0000
0000
0000
0002
0013
0000
0000
1000
0000
0000
0000
0200
0301
,  // measure 85
0000
0000
0010
0000
0100
0000
0002
0013
0000
0000
0001
0000
0100
0000
1000
0000
,  // measure 86
0100
0000
0010
0000
0000
0000
0002
0013
0000
0000
0100
0000
0001
0000
2000
3010
,  // measure 87
0000
0000
0001
0000
0100
0000
2000
3100
0010
0000
0100
0000
0001
0000
0010
0000
,  // measure 88
2000
0002
0000
0000
,  // measure 89
0000
0000
0000
3003
;
