#VERSION:0.83;
#TITLE:check;
#SUBTITLE:;
#ARTIST:BBNO$;
#TITLETRANSLIT:;
#SUBTITLETRANSLIT:;
#ARTISTTRANSLIT:;
#GENRE:;
#ORIGIN:;
#CREDIT:;
#BANNER:;
#BACKGROUND:;
#PREVIEWVID:;
#JACKET:;
#CDIMAGE:;
#DISCIMAGE:;
#LYRICSPATH:;
#CDTITLE:;
#MUSIC:bbno$ - Check.mp3;
#OFFSET:0.000000;
#SAMPLESTART:100.059883;
#SAMPLELENGTH:12.000000;
#SELECTABLE:YES;
#BPMS:0.000=134.000;
#STOPS:0.000=0.500;
#DELAYS:;
#WARPS:;
#TIMESIGNATURES:0.000=4=4;
#TICKCOUNTS:0.000=4;
#COMBOS:0.000=1;
#SPEEDS:0.000=1.000=0.000=0;
#SCROLLS:0.000=1.000;
#FAKES:;
#LABELS:0.000=Song Start;
#BGCHANGES:;
#KEYSOUNDS:;
#ATTACKS:
;

//---------------dance-single - ----------------
#NOTEDATA:;
#CHARTNAME:;
#STEPSTYPE:dance-single;
#DESCRIPTION:;
#CHARTSTYLE:;
#DIFFICULTY:Hard;
#METER:12;
#RADARVALUES:0.539044,0.584668,0.081850,0.024555,0.130961,461.000000,451.000000,10.000000,3.000000,0.000000,0.000000,0.000000,0.000000,0.000000,0.539044,0.584668,0.081850,0.024555,0.130961,461.000000,451.000000,10.000000,3.000000,0.000000,0.000000,0.000000,0.000000,0.000000;
#CREDIT:;
#NOTES:
0000
0000
0000
0000
,
0000
0000
0000
0000
,
0000
0000
0000
0000
,
0000
0000
0000
0000
,
0110
0000
0000
0000
0011
0000
0011
0010
,
0010
0100
0001
0100
0001
0100
0001
0100
,
0001
0100
0010
0001
1000
0001
0100
0010
,
0001
1000
0001
0100
0010
0001
1000
0001
,
0100
0000
0010
0000
1000
0001
0010
0000
0100
0000
0001
0000
0100
0000
0001
0000
,
0010
0000
0100
0000
0001
0000
1000
0000
1000
0000
0100
0001
0000
0010
0100
0000
,
0001
0000
0010
0000
0100
0000
0010
0000
1000
0000
0100
0001
0000
0010
0100
0000
,
0001
0100
0010
0001
0100
0001
0100
0010
,
1001
1000
0110
0010
0110
1000
1001
0010
,
0110
0010
0100
1000
0100
0010
0001
0100
,
0001
0100
0001
0100
0001
0100
0010
0001
,
0100
0001
0100
0010
0001
1000
0001
0100
,
0010
0001
0100
0001
0100
0010
0001
0100
,
0001
0100
0010
0001
1000
0001
0100
0010
,
0001
0100
0001
0100
0001
0100
0001
0100
,
0010
0001
1000
0001
0100
0010
0001
0100
,
0001
0100
0010
0001
1000
0001
0100
0010
,
1000
1000
1000
1000
1000
0000
0000
0000
,
0100
0100
0100
0100
0100
0000
0000
0000
,
0001
0002
0000
0000
0000
0000
0000
0000
,
0000
0000
0000
0003
,
0010
0001
1000
0001
0100
0010
0001
0100
,
1000
0100
0001
0000
0010
0000
0010
0000
0100
0000
0001
0000
0100
0000
0010
0000
,
0001
0100
0001
0100
0010
0001
1000
0001
,
0100
0010
0001
0100
0001
0100
0001
0100
,
0010
0000
0001
0000
1000
0000
0001
0000
0100
0000
0010
0000
1000
0001
0010
0000
,
0010
0001
0100
0010
0001
1000
0001
0100
,
0010
0001
0100
0000
0010
0000
0001
0000
0100
0000
0001
0000
0100
0000
0010
0000
,
0001
1000
0001
0100
0010
0001
0100
1000
,
0100
0001
0010
0000
0001
1000
0010
0100
0001
0000
1000
0100
0001
0000
0010
0000
,
0100
0010
0100
0001
0100
0010
0001
0100
,
1000
0000
0000
0000
0100
0001
0010
0000
0100
0001
0010
0000
0100
0001
1000
0000
,
0100
0000
0001
0000
1000
0100
0001
0000
0010
0000
0010
0000
0100
0000
0000
0000
,
0010
0000
0010
0000
0010
0000
0010
0001
,
1000
0001
0100
0010
0001
1000
0100
0000
,
1001
0000
0001
0000
1001
0000
0001
0100
,
0100
0001
0100
0001
0100
0001
0100
0010
,
0100
0010
0001
1000
0001
0100
0010
0001
,
0100
0001
0100
0010
0001
1000
0001
0100
,
0010
0001
0100
0001
0100
0010
0001
1000
,
0001
0100
0010
0001
0100
0001
0100
0010
,
0001
1000
0001
0100
0010
0001
1000
0001
,
0100
0010
0001
1000
0100
0000
0010
0100
,
0001
0100
0010
0001
0100
0010
0001
1000
,
0001
0100
0010
0001
0100
0010
0001
0100
,
1000
1000
1000
1000
1000
0000
0000
0000
,
0100
0100
0100
0100
0100
0000
0000
0000
,
0010
0020
0000
0030
0100
0100
0001
0100
,
1000
0000
0100
0010
0001
0100
1000
0000
,
0100
0100
0100
0100
0100
0000
0000
0000
,
0010
0010
0010
0010
0010
0001
1000
0000
,
0100
0200
0000
0300
0001
1000
0100
0001
,
0010
0000
0010
0100
0001
0100
0010
0000
,
0100
0000
0001
0000
0100
0000
0010
0100
0000
0000
0100
0000
1000
0000
0010
0100
,
0000
0000
0001
0000
0010
0000
0100
1000
0000
0000
0001
0000
0010
0000
1000
0100
,
0000
0000
0010
0000
0001
0000
0100
0010
0000
0000
0001
0000
0100
0000
1000
0001
,
0000
0000
0010
0000
0100
0000
0001
1000
0000
0000
0100
0000
0001
0000
0010
0100
,
0000
0000
0010
0000
0100
0000
1000
0001
0000
0000
0010
0000
0010
0000
0100
0001
,
0000
0000
0100
0000
0010
0000
1000
0100
0000
0000
0010
0000
0001
0000
0100
0010
,
0000
0000
0010
0000
0001
0000
1000
0100
0000
0000
0001
0000
0100
0000
0010
0100
,
0000
0000
0010
0000
0001
0000
0100
1000
0000
0000
0100
0000
0010
0000
0100
0010
;

//---------------dance-single - ----------------
#NOTEDATA:;
#CHARTNAME:;
#STEPSTYPE:dance-single;
#DESCRIPTION:;
#CHARTSTYLE:;
#DIFFICULTY:Medium;
#METER:9;
#RADARVALUES:0.395221,0.451354,0.040925,0.040925,0.000000,338.000000,333.000000,5.000000,5.000000,0.000000,0.000000,0.000000,0.000000,0.000000,0.395221,0.451354,0.040925,0.040925,0.000000,338.000000,333.000000,5.000000,5.000000,0.000000,0.000000,0.000000,0.000000,0.000000;
#CREDIT:;
#NOTES:
0000
0000
0000
0000
,
0000
0000
0000
0000
,
0000
0000
0000
0000
,
0000
0000
0000
0000
,
1100
0000
0101
0101
,
0010
0001
0100
1000
0001
0100
0010
0001
,
0100
0001
0100
0010
0001
1000
0100
0001
,
1000
0001
0100
0010
0001
0100
1000
0100
,
0010
0001
0100
0001
0100
0010
0001
1000
,
0001
0100
0010
0001
1000
0001
0100
0010
,
0001
0100
1000
0001
0100
0010
0001
0010
,
0100
0001
0100
0010
0001
1000
0001
0100
,
0010
0001
0100
0001
0100
0010
0001
1000
,
0001
0100
0001
0010
0100
0001
0100
0010
,
0001
1000
0001
0100
0010
0000
0100
0001
,
1000
1000
1000
1000
,
1000
0000
1000
0000
1000
0000
0100
0001
,
0010
0001
0100
1000
0001
0100
0010
0001
,
0100
0010
0001
0100
1000
0000
0001
0100
,
0010
0010
0010
0010
,
0010
0000
0010
0000
0010
0001
0100
1000
,
0100
0100
0100
0100
0100
0000
0000
0000
,
0010
0010
0010
0010
0010
0000
0000
0000
,
0001
0002
0000
0000
0000
0000
0000
0000
,
0000
0000
0000
0000
0000
0000
0000
0003
,
0010
0001
0100
0010
0001
1000
0001
0100
,
0010
0001
1000
0001
0100
0010
0001
1000
,
0001
0100
0010
0001
1000
0001
0100
0010
,
0001
0100
1000
0100
0010
0001
0100
0001
,
0100
0010
0001
1000
0001
0100
0010
0001
,
0100
0001
0100
0010
0001
1000
0001
0100
,
0010
0001
1000
0001
0100
0010
0001
0100
,
0001
0100
0010
0001
1000
0001
0100
0010
,
0000
1000
0100
0001
0010
0000
0100
0001
,
1000
0000
0001
0100
0010
0000
0001
0100
,
0010
0000
0001
0100
1000
0000
0100
1000
,
0001
0000
0100
0010
0001
0000
0100
0000
,
0000
0000
0000
0000
0000
0000
0010
0001
,
1000
0001
0100
0010
0001
0100
1000
0000
,
0110
0000
0000
0000
0110
0000
0100
0001
,
1000
0001
0010
0100
0001
1000
0001
0010
,
0100
0001
1000
0001
0010
0100
0001
1000
,
0100
0001
0010
0100
0001
0000
0010
0100
,
0001
0001
0001
0001
,
0001
0000
0001
0000
0001
0000
0010
0001
,
0100
0001
0100
0010
0001
1000
0001
0100
,
0010
0001
1000
0001
0100
0000
0010
0001
,
0100
0100
0100
0100
,
0100
0000
0100
0000
0100
0010
0001
1000
,
0100
0100
0100
0100
0100
0000
0000
0000
,
0010
0010
0010
0010
0010
0000
0000
0000
,
0001
0002
0000
0000
0000
0000
0000
0000
,
0000
0000
0000
0003
,
0100
0100
0100
0100
0100
0000
0000
0000
,
0010
0010
0010
0010
0010
0000
0000
0000
,
0010
0020
0000
0000
0000
0000
0000
0000
,
0000
0000
0000
0030
,
1000
1000
1000
1000
1000
0000
0000
0000
,
0100
0100
0100
0100
0100
0000
0000
0000
,
0010
0020
0000
0000
0000
0000
0000
0000
,
0000
0000
0000
0030
,
0100
0100
0100
0100
0100
0000
0000
0000
,
0001
0001
0001
0001
0001
0000
0000
0000
,
0010
0020
0000
0000
0000
0000
0000
0000
,
0000
0000
0000
0000
0000
0000
0000
0030
;

//---------------dance-single - ----------------
#NOTEDATA:;
#CHARTNAME:;
#STEPSTYPE:dance-single;
#DESCRIPTION:;
#CHARTSTYLE:;
#DIFFICULTY:Easy;
#METER:6;
#RADARVALUES:0.258414,0.370987,0.130961,0.073665,0.000000,221.000000,205.000000,16.000000,9.000000,0.000000,0.000000,0.000000,0.000000,0.000000,0.258414,0.370987,0.130961,0.073665,0.000000,221.000000,205.000000,16.000000,9.000000,0.000000,0.000000,0.000000,0.000000,0.000000;
#CREDIT:;
#NOTES:
0000
0000
0000
0000
,
0000
0000
0000
0000
,
0000
0000
0000
0000
,
0000
0000
0000
0000
,
1100
0000
0101
0101
,
0100
0001
0010
0100
,
0001
1000
0001
0010
,
0100
0001
1000
0001
,
0010
0100
0001
0001
,
0100
0010
0001
0100
,
1000
0010
0100
0001
,
1000
0001
0010
0100
,
1001
0110
1001
0110
,
1001
0010
0100
0001
,
1000
0001
0010
0100
,
0001
0001
0001
0001
,
0001
0001
0001
0001
,
0010
0100
0001
1000
,
0001
0010
0100
0100
,
0100
0100
0100
0100
,
0100
0100
0010
0010
,
0100
0100
0100
0000
,
0001
0001
0001
0000
,
0001
0002
0000
0000
0000
0000
0000
0000
,
0000
0000
0000
0000
0000
0000
0000
0003
,
0010
0001
0100
0010
,
0001
1000
0100
0100
,
0110
0001
1000
0100
,
0010
0100
0001
1000
,
0001
0010
0100
0001
,
0100
0010
0001
1000
,
0001
0100
0010
0001
,
1000
0001
0100
0010
,
1001
0010
0100
0001
,
1000
0001
0010
0100
,
0001
1000
0001
0010
,
0100
0001
1000
0100
,
0000
0000
0000
0100
,
0001
1000
0001
0010
,
1001
0000
0110
0010
,
1001
0110
1001
0110
,
0001
1000
0100
0010
,
0100
0001
1000
0001
,
0010
0010
0010
0010
,
0010
0010
0010
0010
,
0100
0001
1000
0001
,
0010
0100
0001
0100
,
0100
0100
0100
0100
,
0100
0100
0010
0010
,
0100
0100
0100
0000
,
0010
0010
0010
0000
,
0100
0200
0000
0000
0010
0000
0010
0000
,
0010
0001
0001
0301
,
1000
1000
1000
0000
,
0100
0100
0100
0000
,
0010
0020
0000
0000
0100
0000
0100
0000
,
0100
1000
1000
1030
,
0200
0000
0000
0000
,
0000
0300
0010
0001
0200
0000
0002
0000
,
0000
0000
0000
0000
,
0000
0000
0000
0303
,
2000
0000
0000
0000
,
3000
0000
0100
0001
0020
0000
0000
0000
,
0200
0000
0000
0000
,
0000
0000
0000
0330
;

//---------------dance-single - ----------------
#NOTEDATA:;
#CHARTNAME:;
#STEPSTYPE:dance-single;
#DESCRIPTION:;
#CHARTSTYLE:;
#DIFFICULTY:Beginner;
#METER:3;
#RADARVALUES:0.079512,0.154697,0.032740,0.000000,0.000000,68.000000,64.000000,4.000000,0.000000,0.000000,0.000000,0.000000,0.000000,0.000000,0.079512,0.154697,0.032740,0.000000,0.000000,68.000000,64.000000,4.000000,0.000000,0.000000,0.000000,0.000000,0.000000,0.000000;
#CREDIT:;
#NOTES:
// measure 0
0000
0000
0000
0000
,  // measure 1
0000
0000
0000
0000
,  // measure 2
0000
0000
0000
0000
,  // measure 3
0000
0000
0000
0000
,  // measure 4
1001
0000
0000
0000
,  // measure 5
0010
0000
0000
0000
,  // measure 6
0100
0000
0000
0000
,  // measure 7
0001
0000
0000
0000
,  // measure 8
1000
0000
0000
0000
,  // measure 9
1000
0000
0000
0000
,  // measure 10
0100
0000
0000
0000
,  // measure 11
0001
0000
0000
0000
,  // measure 12
1001
0000
0000
0000
,  // measure 13
0010
0000
0000
0000
,  // measure 14
0100
0000
0000
0000
,  // measure 15
0010
0000
0000
0000
,  // measure 16
0000
0000
0000
0000
,  // measure 17
0100
0000
0000
0000
,  // measure 18
0001
0000
0000
0000
,  // measure 19
1000
0000
0000
0000
,  // measure 20
0000
0000
0000
0000
,  // measure 21
0010
0000
0000
0000
,  // measure 22
0100
0000
0000
0000
,  // measure 23
0010
0000
0000
0000
,  // measure 24
0000
0000
0000
0000
,  // measure 25
0100
0000
0010
0000
,  // measure 26
1000
0000
0010
0000
,  // measure 27
0001
0000
0100
0000
,  // measure 28
0010
0000
0010
0000
,  // measure 29
0100
0000
0010
0000
,  // measure 30
0001
0000
1000
0000
,  // measure 31
0001
0000
0010
0000
,  // measure 32
0100
0000
0001
0000
,  // measure 33
1000
0000
0100
0000
,  // measure 34
0100
0000
0001
0001
,  // measure 35
0001
0000
0100
0000
,  // measure 36
0010
0000
0100
0100
,  // measure 37
0000
0000
0000
0000
,  // measure 38
0010
0000
0000
0000
,  // measure 39
1001
0000
1001
0000
,  // measure 40
0010
0000
0000
0000
,  // measure 41
0100
0000
0000
0000
,  // measure 42
0001
0000
0000
0000
,  // measure 43
1000
0000
0000
0000
,  // measure 44
0000
0000
0000
0000
,  // measure 45
0100
0000
0000
0000
,  // measure 46
0001
0000
0000
0000
,  // measure 47
0010
0000
0000
0000
,  // measure 48
0000
0000
0000
0000
,  // measure 49
0100
0000
0000
0000
,  // measure 50
0001
0000
0000
0000
,  // measure 51
0100
0000
0000
0000
,  // measure 52
0000
0000
0000
0000
,  // measure 53
1000
0000
0000
0000
,  // measure 54
0100
0000
0000
0000
,  // measure 55
0001
0000
0000
0000
,  // measure 56
0000
0000
0000
0000
,  // measure 57
0010
0000
0000
0000
,  // measure 58
0000
0000
0000
0000
,  // measure 59
0100
0000
0000
0000
,  // measure 60
0000
0000
0000
0000
,  // measure 61
0010
0000
0000
0000
,  // measure 62
0000
0000
0000
0000
,  // measure 63
1000
0000
0000
0000
;
