#VERSION:0.83;
#TITLE:carry on;
#SUBTITLE:;
#ARTIST:Jungle;
#TITLETRANSLIT:;
#SUBTITLETRANSLIT:;
#ARTISTTRANSLIT:;
#GENRE:;
#ORIGIN:;
#CREDIT:;
#BANNER:;
#BACKGROUND:;
#PREVIEWVID:;
#JACKET:;
#CDIMAGE:;
#DISCIMAGE:;
#LYRICSPATH:;
#CDTITLE:;
#MUSIC:Carry On.ogg;
#OFFSET:0.000000;
#SAMPLESTART:100.059883;
#SAMPLELENGTH:12.000000;
#SELECTABLE:YES;
#BPMS:0.000=152.000,
52.000=154.000,
132.000=152.000,
188.000=154.000,
252.000=152.000,
328.000=154.000,
408.000=152.000;
#STOPS:0.000=0.100;
#DELAYS:;
#WARPS:;
#TIMESIGNATURES:0.000=4=4;
#TICKCOUNTS:0.000=4;
#COMBOS:0.000=1;
#SPEEDS:0.000=1.000=0.000=0;
#SCROLLS:0.000=1.000;
#FAKES:;
#LABELS:0.000=Song Start;
#BGCHANGES:;
#KEYSOUNDS:;
#ATTACKS:
;

//---------------dance-single - ----------------
#NOTEDATA:;
#CHARTNAME:;
#STEPSTYPE:dance-single;
#DESCRIPTION:;
#CHARTSTYLE:;
#DIFFICULTY:Hard;
#METER:11;
#RADARVALUES:0.487316,0.527931,0.000000,0.094756,0.000000,576.000000,576.000000,0.000000,16.000000,0.000000,0.000000,0.000000,0.000000,0.000000,0.487316,0.527931,0.000000,0.094756,0.000000,576.000000,576.000000,0.000000,16.000000,0.000000,0.000000,0.000000,0.000000,0.000000;
#CREDIT:;
#NOTES:
// measure 0
0000
0000
0000
0000
,  // measure 1
0000
0000
0000
0000
,  // measure 2
0000
0000
0000
0000
,  // measure 3
0001
0000
0100
0000
0010
0000
0100
1000
,  // measure 4
0000
0000
0000
0000
,  // measure 5
0100
0001
0000
0010
0000
0100
0000
0001
,  // measure 6
0000
0100
0000
0010
0000
0100
0001
0010
,  // measure 7
0000
0000
0100
0000
1000
0000
0001
0100
,  // measure 8
0000
0000
0000
0000
2000
0000
3000
0100
,  // measure 9
0000
0000
0100
0000
1000
0100
0001
0010
,  // measure 10
0000
0100
0000
0001
0000
1000
0100
0001
,  // measure 11
0000
0000
0010
0000
0001
0000
0100
0001
,  // measure 12
0000
0000
0000
0000
2000
0000
3000
0100
,  // measure 13
0000
0100
0010
0000
0000
1000
0000
0100
,  // measure 14
0000
0001
0000
0100
0000
0100
0001
0010
,  // measure 15
1000
0000
0100
0000
0001
0000
0010
0100
,  // measure 16
0000
0000
0000
0000
0100
0001
0000
1000
,  // measure 17
0100
0001
0010
0100
0001
1000
0001
0010
,  // measure 18
0100
0001
0100
0010
0001
0100
0001
0100
,  // measure 19
0010
0100
1000
0010
0100
0010
0001
0100
,  // measure 20
0001
0100
0010
0001
0100
0001
0100
0010
,  // measure 21
0001
1000
0001
0100
0010
0001
0100
0001
,  // measure 22
0100
0010
0001
1000
0001
0100
0010
0001
,  // measure 23
0100
0001
0100
0010
0001
0100
0001
1000
,  // measure 24
0100
0010
0001
1000
0001
0100
0010
0001
,  // measure 25
0100
0001
0100
0010
0001
0100
0001
1000
,  // measure 26
0100
0001
0100
0001
0100
0010
0001
1000
,  // measure 27
0001
0100
0010
0001
0100
0001
0100
0010
,  // measure 28
0001
0100
0001
0100
0010
0001
1000
0001
,  // measure 29
0100
0010
0001
0100
0001
0100
0010
0001
,  // measure 30
0100
0001
0100
0010
0100
1000
0100
0010
,  // measure 31
0100
0001
0010
0100
1000
0100
0010
0001
,  // measure 32
0200
0010
0000
0310
,  // measure 33
0001
0000
0100
0000
0010
0000
0001
0100
,  // measure 34
0000
0100
0001
1000
0000
0100
0010
0100
,  // measure 35
0000
0000
0001
0000
0010
0000
0001
0200
,  // measure 36
0000
0000
0010
0310
,  // measure 37
0100
0000
0010
0000
0001
0100
0000
1000
,  // measure 38
0000
0100
0000
0001
0000
1000
0100
0001
,  // measure 39
0000
0000
0010
0000
0001
0000
1000
0100
,  // measure 40
0000
0000
0000
0000
0100
0000
0010
0100
,  // measure 41
0000
0000
0001
0000
0001
0100
0000
0001
,  // measure 42
0000
0100
0000
0010
0000
0100
0001
1000
,  // measure 43
0000
0000
0010
0000
0001
0000
0100
2000
,  // measure 44
0000
0000
0001
3001
,  // measure 45
0100
0000
0001
1000
0000
0100
0000
0001
,  // measure 46
0000
0100
0000
0010
0000
0001
0100
1000
,  // measure 47
0000
0000
0010
0000
0001
0000
0100
1000
,  // measure 48
0000
0000
0000
0000
0100
0001
0000
0100
,  // measure 49
1000
0100
0010
0100
0010
0010
0010
0010
,  // measure 50
0100
0010
1000
0001
0100
0001
0100
0001
,  // measure 51
0010
0100
0001
1000
0001
0010
0100
0001
,  // measure 52
0100
0001
0010
0100
0001
1000
0001
0010
,  // measure 53
0100
0001
0100
0001
0010
0100
0001
1000
,  // measure 54
0001
0010
0100
0001
1000
0010
0001
0100
,  // measure 55
0010
0001
1000
0001
0100
0001
0100
0010
,  // measure 56
0001
0100
0001
0100
0010
0001
0100
0001
,  // measure 57
0100
1000
0100
0010
0100
0001
0100
0010
,  // measure 58
0100
1000
0100
0010
0001
0100
0001
0100
,  // measure 59
0001
0100
0010
0001
1000
0001
0100
0010
,  // measure 60
0001
0100
0001
0100
0010
0100
1000
0010
,  // measure 61
0100
0001
0100
0001
0010
0100
1000
0100
,  // measure 62
0010
0100
0001
0100
0001
0010
0100
0100
,  // measure 63
1000
0100
0001
0100
0001
0100
0001
0100
,  // measure 64
0000
0100
0000
0010
0001
0100
0000
1000
,  // measure 65
0020
0000
0000
0030
,  // measure 66
0200
0000
0000
0300
,  // measure 67
2000
0000
0000
3000
,  // measure 68
0002
0000
0010
0013
,  // measure 69
2000
0000
0000
3000
,  // measure 70
0002
0000
0000
0003
,  // measure 71
0200
0000
0000
0300
,  // measure 72
0020
0000
0030
0000
0001
0100
0000
0010
,  // measure 73
0100
0010
0001
1000
0001
0100
0010
0001
,  // measure 74
0100
0001
0100
0010
0001
1000
0001
0100
,  // measure 75
0010
0001
0100
0001
0100
0010
0001
1000
,  // measure 76
0001
0100
0010
0001
0100
0001
0100
0010
,  // measure 77
0001
1000
0001
0100
0010
0001
0100
0001
,  // measure 78
0100
0010
0001
1000
0001
0100
0010
0001
,  // measure 79
0100
0001
0100
0010
0001
0100
0001
0100
,  // measure 80
0010
0001
1000
0001
0100
0010
0001
0100
,  // measure 81
0001
0100
0010
0001
1000
0001
0100
0010
,  // measure 82
0100
0010
0001
0100
0001
0100
0010
0001
,  // measure 83
1000
0001
0100
0010
0001
0100
0001
0100
,  // measure 84
0010
0001
1000
0001
0100
0010
0001
0100
,  // measure 85
0001
0100
0010
0001
1000
0001
0100
0010
,  // measure 86
0001
0100
0010
0001
1000
0001
0100
0010
,  // measure 87
0001
1000
0001
0100
0001
1000
0001
0100
,  // measure 88
0000
0010
0000
0100
0001
0010
0000
0100
,  // measure 89
0001
0010
0100
0001
,  // measure 90
1000
0000
0001
0000
0010
0001
0100
0010
,  // measure 91
0100
0001
1000
0001
,  // measure 92
0100
0010
0200
0301
,  // measure 93
0010
0100
0001
0100
,  // measure 94
0010
0000
0100
0001
1000
0001
0010
0100
,  // measure 95
0001
1000
0001
0100
,  // measure 96
0010
0001
0200
0301
,  // measure 97
0100
0010
0100
0001
,  // measure 98
1000
0001
0010
0100
,  // measure 99
0001
0100
0001
0010
,  // measure 100
0100
0001
0200
0301
,  // measure 101
0100
0001
0100
0001
,  // measure 102
0100
0010
0001
1000
,  // measure 103
0001
0100
0010
0001
,  // measure 104
0100
0000
0001
0000
0100
0000
1000
0010
;
