#VERSION:0.83;
#TITLE:cant go broke;
#SUBTITLE:;
#ARTIST:Zeddy Will;
#TITLETRANSLIT:;
#SUBTITLETRANSLIT:;
#ARTISTTRANSLIT:;
#GENRE:;
#ORIGIN:;
#CREDIT:;
#BANNER:;
#BACKGROUND:;
#PREVIEWVID:;
#JACKET:;
#CDIMAGE:;
#DISCIMAGE:;
#LYRICSPATH:;
#CDTITLE:;
#MUSIC:Cant Go Broke Remix.mp3;
#OFFSET:0.000000;
#SAMPLESTART:0.059886;
#SAMPLELENGTH:12.000000;
#SELECTABLE:YES;
#BPMS:0.000=108.000;
#STOPS:0.000=1.200;
#DELAYS:;
#WARPS:;
#TIMESIGNATURES:0.000=4=4;
#TICKCOUNTS:0.000=4;
#COMBOS:0.000=1;
#SPEEDS:0.000=1.000=0.000=0;
#SCROLLS:0.000=1.000;
#FAKES:;
#LABELS:0.000=Song Start;
#BGCHANGES:;
#KEYSOUNDS:;
#ATTACKS:
;

//---------------dance-single - ----------------
#NOTEDATA:;
#CHARTNAME:;
#STEPSTYPE:dance-single;
#DESCRIPTION:;
#CHARTSTYLE:;
#DIFFICULTY:Hard;
#METER:13;
#RADARVALUES:0.684426,0.682275,0.000000,0.000000,1.037892,517.000000,517.000000,0.000000,0.000000,0.000000,0.000000,0.000000,0.000000,0.000000,0.684426,0.682275,0.000000,0.000000,1.037892,517.000000,517.000000,0.000000,0.000000,0.000000,0.000000,0.000000,0.000000,0.000000;
#CREDIT:;
#NOTES:
// measure 0
0000
0000
0000
0000
,  // measure 1
0000
0000
0000
0000
,  // measure 2
0000
0000
1000
0100
0001
0000
0010
0001
0100
0000
0010
0100
0000
0000
0000
0000
,  // measure 3
0000
0000
0010
0001
0100
0010
0001
0100
1000
0010
0100
0001
0000
1000
0100
0000
,  // measure 4
0000
0000
0010
0001
0100
0010
0001
0100
1000
0010
0100
0001
0000
0001
0100
0000
,  // measure 5
0000
0000
0010
0001
0100
0010
0001
0100
1000
0010
0100
0001
0000
1000
0100
0000
,  // measure 6
0000
0000
0001
0100
0010
0001
0100
0000
1000
0000
0100
0001
0010
0100
0001
0000
,  // measure 7
0001
0100
0010
0001
1000
0001
0100
0010
0001
0100
1000
0010
0000
0100
0001
0000
,  // measure 8
0100
1000
0001
0010
0000
0100
0001
0000
0010
1000
0100
0001
0010
0100
0001
0010
,  // measure 9
0100
1000
0100
0000
0010
0100
0001
0010
0100
0001
1000
0100
0001
0000
1000
0100
,  // measure 10
0000
0000
0000
0001
0010
0000
0100
0001
0010
0000
0010
0001
0100
0010
0001
0100
,  // measure 11
1000
0000
0100
0001
1000
0001
0010
0100
0001
0010
0100
0001
0000
0100
0001
0000
,  // measure 12
0001
0100
0010
0001
0100
0010
0001
1000
0001
0100
0010
0001
0100
1000
0000
0000
,  // measure 13
0001
0100
0001
0100
0010
0001
1000
0001
0100
0010
0001
0100
1000
0001
0000
0000
,  // measure 14
0001
0100
0010
0001
1000
0001
0100
0010
0001
0100
1000
0000
0000
0010
0000
0001
,  // measure 15
0100
0010
0001
0100
0001
0100
0010
0001
1000
0001
0100
0010
1000
0100
0001
0000
,  // measure 16
0100
1000
0001
0000
0010
0000
0100
0001
1000
0010
0100
0001
1000
0100
0001
0000
,  // measure 17
0100
0001
0010
0100
0001
0000
1000
0100
0001
0010
0100
0001
1000
0100
0001
0010
,  // measure 18
0100
0001
0010
0100
0001
1000
0010
0001
0100
0010
0001
0100
1000
0000
0000
0000
,  // measure 19
0100
0010
0001
0100
0010
0001
1000
0001
0100
0010
0001
1000
0100
0000
0010
0100
,  // measure 20
0001
1000
0100
0000
0001
0010
0100
0010
0100
0010
0001
0100
1000
0000
0000
0000
,  // measure 21
0010
0100
0001
0100
0010
0001
1000
0001
0100
0010
0001
0100
1000
0000
0010
0100
,  // measure 22
0001
1000
0100
0000
0001
0000
0100
0010
0100
0010
0001
0100
1000
0000
0000
0000
,  // measure 23
0010
0100
0001
0000
1000
0100
0001
0010
0100
0001
1000
0001
0010
0000
0000
0000
,  // measure 24
0100
0001
0010
0000
0100
0000
0001
0010
0100
0001
1000
0001
0010
0000
0000
0001
,  // measure 25
1000
0100
0001
0010
0100
0100
0010
0001
0100
0010
0001
0100
1000
0000
0100
0010
,  // measure 26
0001
0100
0001
0100
0010
0001
1000
0001
0100
0010
0001
0100
1000
0000
0100
0010
,  // measure 27
0001
0100
0001
0100
0010
0001
1000
0001
0100
0010
0001
0100
1000
0000
0010
0001
,  // measure 28
0100
0010
0001
0100
0010
0001
1000
0001
0100
0010
0001
1000
0100
0000
0000
0000
,  // measure 29
0100
0010
0001
0100
0010
0001
1000
0001
0100
0010
0001
0100
1000
0000
0000
0000
,  // measure 30
0010
0010
0001
0100
0010
0001
1000
0001
0100
0010
0001
0100
1000
0000
0000
0000
,  // measure 31
0000
0000
0000
0000
,  // measure 32
0000
0100
0001
0100
0010
0001
1000
0001
0100
0010
0001
1000
0000
0100
0001
0000
,  // measure 33
0010
0100
0010
0001
1000
0001
0100
0010
0001
1000
0001
0100
0000
0010
0100
0000
,  // measure 34
0000
0000
0100
0010
0001
1000
0001
0100
0010
0100
0001
0100
0000
0010
0100
0000
,  // measure 35
0000
0000
0001
0100
0001
0100
0010
0001
1000
0001
0100
0010
0000
0100
0001
0000
,  // measure 36
0000
0000
0010
0001
0100
0010
0001
1000
0001
0100
0010
0001
0000
0100
1000
0000
,  // measure 37
0000
0000
0100
0010
0001
0100
0010
0001
1000
0001
0100
0010
0000
0100
0001
0000
,  // measure 38
0000
0000
0100
0001
0010
0100
0001
0000
0001
0100
0010
0100
0000
0001
0010
0010
,  // measure 39
0100
0010
0001
1000
0001
0100
0001
0100
0010
0000
0010
0100
0001
0010
0100
0000
,  // measure 40
1000
0000
0100
0001
0010
0100
0001
0000
,  // measure 41
0100
0000
0010
0100
0010
0000
0010
0000
,  // measure 42
0001
1000
0001
0100
,  // measure 43
0010
0000
0001
0100
1000
0000
0010
0000
,  // measure 44
0001
1000
0001
0100
,  // measure 45
0010
0000
0001
1000
0100
0000
0010
0000
,  // measure 46
0001
1000
0001
0100
,  // measure 47
0010
0000
0001
0100
1000
0000
0000
0000
;
