#TITLE:cave;
#SUBTITLE:;
#ARTIST:Dom Dolla & Tove Lo;
#TITLETRANSLIT:;
#SUBTITLETRANSLIT:;
#ARTISTTRANSLIT:;
#GENRE:;
#CREDIT:;
#BANNER:;
#BACKGROUND:;
#LYRICSPATH:;
#CDTITLE:;
#MUSIC:Dom Dolla & Tove Lo - CAVE (Lyric Video).mp3;
#OFFSET:0.000000;
#SAMPLESTART:100.059883;
#SAMPLELENGTH:12.000000;
#SELECTABLE:YES;
#BPMS:0.000000=43.500000
,16.000000=176.000000
,112.000000=88.000000
,116.000000=176.000000
,140.000000=88.000000
,144.000000=170.000000
,168.000000=88.000000
,172.000000=176.000000
,196.000000=44.000000
,212.000000=170.000000
,232.000000=176.000000
,276.000000=88.000000
,280.000000=176.000000
,304.000000=88.000000
,308.000000=176.000000
,332.000000=88.000000
,336.000000=170.000000
,360.000000=88.000000
,364.000000=176.000000
,372.000000=44.000000
;
#STOPS:0.000000=2.164000
;
#BGCHANGES:;
#KEYSOUNDS:;
#ATTACKS:;

//---------------dance-single - ----------------
#NOTES:
     dance-single:
     :
     Hard:
     16:
     0.735129,0.856843,0.000000,0.055392,0.764407,929.000000,929.000000,0.000000,10.000000,0.000000,0.000000,0.735129,0.856843,0.000000,0.055392,0.764407,929.000000,929.000000,0.000000,10.000000,0.000000,0.000000:
0000
0000
0000
0000
,
0000
0000
0000
0000
,
0200
0000
0000
0020
0000
0000
0330
0000
0000
0001
1000
0100
,
0002
0000
0000
0003
,
1000
0100
0001
0010
0100
0001
1000
0010
,
0001
1000
0100
0001
1000
0000
0001
0100
,
1000
0001
1000
0001
0100
0010
0001
0100
,
1000
0000
0100
0000
0100
0010
0001
0100
,
1000
0000
0001
0100
0010
0001
1000
0001
,
0100
0010
0001
0100
1000
0010
0001
0100
,
1000
0010
0001
1000
0001
0010
0100
0010
,
0001
0100
0020
0030
,
0001
0100
0010
0001
0100
0010
0001
0100
,
1000
0100
0001
0001
0010
0000
0001
0100
,
1000
0001
0100
0001
0100
0010
0001
0100
,
1000
0000
0010
0000
0100
0010
0001
0100
,
1000
0100
0010
0001
1000
0001
0100
0010
,
0001
0100
1000
0001
0010
0000
0010
0001
,
0100
0001
0100
0010
0001
1000
0100
0000
,
0010
0001
0010
0100
,
1000
0000
0100
0000
0001
1000
0100
0001
0100
0001
0100
0001
0100
0000
0001
0000
,
0010
0000
0100
0000
0001
1000
0100
0001
0010
0100
0001
1000
0001
0000
0010
0000
,
0100
0000
0001
0000
0010
0100
0001
1000
0001
0010
0100
0001
0010
0000
0100
0000
,
0001
0000
1000
0000
0100
0001
0010
0100
0001
1000
0001
0010
0100
0000
0001
0000
,
0010
0000
0100
0000
0001
1000
0100
0001
0010
0100
0001
1000
0001
0000
0010
0000
,
0001
0000
0100
0000
0010
0001
1000
0001
0100
0001
0100
0010
1000
0000
0010
0000
,
0100
0000
0001
0000
1000
0100
0001
0010
0100
0001
1000
0001
0010
0000
0100
0000
,
0001
0000
0100
0000
1000
0001
0100
0010
0001
0100
0010
0001
1000
0100
0001
0010
,
1000
0000
0000
0100
0000
0000
0001
0000
0010
0001
0010
0000
0100
0000
0000
0001
,
1000
0000
0100
0000
0001
0010
0100
0001
1000
0001
0010
0100
0001
0000
1000
0000
,
0100
0000
0001
0000
0010
0100
0001
1000
0001
0010
0100
0001
0100
0000
0001
0000
,
0010
0000
0100
0000
0001
1000
0100
0001
0010
0100
0001
1000
0001
0000
0010
0000
,
0100
0000
0001
0000
0100
0010
0001
1000
0001
0010
0100
0001
1000
0000
0100
0000
,
0001
0000
0010
0000
0100
0001
1000
0001
0010
0100
0001
0100
0001
0000
0010
0000
,
0100
0000
0001
0000
0010
0100
0001
1000
0001
0010
0100
0001
0100
0000
0001
0000
,
1000
0000
0001
0000
0000
0010
0000
0000
1000
0000
0100
0000
0001
0000
0010
0100
,
0001
0000
0010
0000
0100
1000
0001
0010
0100
0001
1000
0001
0010
0000
1000
0000
,
0100
0000
0001
0000
0010
0100
0001
1000
0001
0010
0100
0001
1000
0000
0001
0000
,
0010
0000
0100
0000
0010
0001
0100
0001
0100
0010
0001
1000
0010
0000
0100
0000
,
1000
0000
0001
0000
0010
0100
0001
1000
0001
0010
0100
0001
0010
0000
0100
0000
,
0001
0000
0010
0000
0100
0001
1000
0001
0010
0100
0001
0100
0001
0000
0010
0000
,
0100
0000
0001
0000
0010
0100
0001
1000
0001
0010
0100
0001
0100
0000
0001
0000
,
1000
0000
0001
0000
0000
1000
0000
0000
0100
0010
0001
0000
0100
0000
0001
1000
,
0100
0000
0001
0000
0100
0010
0001
1000
0001
0100
0010
0001
1000
0000
0100
0000
,
0001
0000
0010
0000
0100
0001
1000
0001
0010
0100
0001
0100
0001
0000
1000
0000
,
0100
0000
0001
0000
0010
0100
0001
1000
0001
0010
0100
0001
0100
0000
0001
0000
,
0100
0000
0010
0000
0001
0100
1000
0001
0100
0010
0001
0100
1000
0000
0001
0000
,
0010
0000
0100
0000
0001
0010
1000
0010
0100
0001
0010
0100
0001
0000
0010
0000
,
0100
0000
0001
0000
0010
0001
1000
0001
0100
0010
0001
0010
0100
0000
1000
0000
,
2000
0000
0000
0200
0000
0000
3300
0000
0000
0100
0010
0001
,
0200
0000
0000
0000
0000
0000
0300
0000
0000
0001
1000
0100
,
0002
0000
0000
0020
0000
0000
0033
0000
0000
0010
0001
1000
,
0200
0000
0000
0300
,
1000
0100
0001
0010
0100
0001
0001
1000
,
0100
0100
0010
0001
0100
0000
1000
0010
,
0100
0001
0100
0001
0100
0010
0001
0100
,
1000
0000
0100
0000
0001
1000
0001
0010
,
0100
0010
0001
1000
0001
0100
0010
0001
,
0100
0010
0001
0100
1000
0000
0001
0100
,
1000
0001
0100
0010
0001
1000
0100
0001
,
0010
0000
0100
0000
1000
0100
0001
1000
,
0100
0001
0010
0100
0001
1000
0100
0001
0010
0100
0001
1000
0001
0010
0100
0001
,
1000
0001
0010
0100
0001
1000
0001
0010
0100
0001
1000
0001
0010
0100
0001
1000
,
0001
0010
0100
0001
1000
0001
0010
0100
0001
0100
0001
0010
0100
0001
1000
0001
,
0010
0100
0001
1000
0001
0010
0100
0001
1000
0001
0001
0100
0010
0001
0100
0001
,
0100
0010
0001
1000
0001
0100
0010
0001
1000
0001
0100
0010
0001
0100
0100
0010
,
0001
1000
0001
0100
0010
0001
1000
0001
0100
0010
0001
0100
0001
0100
0010
0001
,
1000
0001
0100
0010
0001
1000
0001
0100
0010
0001
1000
0001
0100
0010
0001
1000
,
0100
0001
1000
0100
,
1000
0000
0100
0000
0000
0001
0000
0000
0100
0000
0001
0000
1000
0100
0001
0010
,
0100
0000
0010
0000
0001
0100
0010
0001
1000
0001
0100
0010
0001
0000
0100
0000
,
1000
0000
0100
0000
0010
0001
0100
0001
0100
0010
0001
0100
1000
0000
0001
0000
,
0010
0000
0100
0000
0001
1000
0100
0001
0010
0100
0001
1000
0001
0000
0010
0000
,
0001
0000
0100
0000
0010
0001
0100
0001
0100
0010
0001
0100
1000
0000
0001
0000
,
0001
0000
0100
0000
0010
0001
1000
0001
0100
0010
0001
1000
0100
0000
0001
0000
,
0010
0000
0100
0000
0001
1000
0100
0001
0010
0100
0001
1000
0001
0000
0010
0000
,
0100
0000
0001
0000
0000
0010
0000
0000
0000
1000
0100
0000
0001
0000
0010
0100
,
0001
0000
0010
0000
0100
0001
1000
0001
0010
0100
0001
1000
0001
0000
0010
0000
,
0100
0000
0001
0000
0010
0100
0001
1000
0001
0010
0100
0001
0100
0000
0001
0000
,
0010
0000
0100
0000
0001
1000
0100
0001
0010
0100
0001
1000
0001
0000
0010
0000
,
0100
0000
0001
0000
0010
0100
0001
1000
0001
0010
0100
0001
0100
0000
0010
0000
,
0100
0000
0001
0000
0010
0100
0001
1000
0001
0010
0100
0001
0100
0000
0100
0000
,
0010
0000
0001
0000
0100
0010
0001
1000
0001
0100
0010
0001
1000
0000
0100
0000
,
0100
0000
0001
0000
0000
1000
0000
0000
0000
0000
0100
0000
1000
0000
0001
0010
,
0100
0000
0001
0000
0100
0010
0001
1000
0001
0100
0010
0001
0100
0000
1000
0000
,
0100
0000
0001
0000
0010
0100
0001
1000
0001
0010
0100
0001
0010
0000
0100
0000
,
0001
0000
0010
0000
0100
0001
1000
0100
0001
0010
0100
0001
0100
0000
0001
0000
,
0010
0000
0100
0000
0001
1000
0100
0001
0010
0100
0001
1000
0001
0000
0010
0000
,
0001
0000
0100
0000
0010
0001
1000
0001
0100
0010
0100
0001
1000
0000
0100
0000
,
0010
0000
0001
0000
0100
0010
0001
0100
0001
0100
0010
0001
1000
0000
0100
0000
,
0010
0000
0001
0000
0000
0010
0000
0000
0100
0001
0100
0000
0010
0000
0001
0100
,
1000
0000
0010
0000
0001
0100
0010
0001
1000
0001
0100
0010
0001
0000
1000
0000
,
0100
0000
0001
0000
0010
0100
0001
1000
0001
0010
0100
0001
1000
0000
0100
0000
,
1000
0000
0100
0000
0000
0001
0000
0000
0100
0000
0000
0000
0010
0001
1000
0100
0001
0000
1000
0000
0000
0100
0000
0000
0001
0000
0000
0000
0000
0000
0000
0000
;

//---------------dance-single - ----------------
#NOTES:
     dance-single:
     :
     Medium:
     11:
     0.492987,0.497280,0.000000,0.066470,0.041544,623.000000,623.000000,0.000000,12.000000,0.000000,0.000000,0.492987,0.497280,0.000000,0.066470,0.041544,623.000000,623.000000,0.000000,12.000000,0.000000,0.000000:
0000
0000
0000
0000
,
0000
0000
0000
0000
,
2000
0200
3300
0100
,
0020
0000
0000
0030
,
0100
0001
1000
0100
,
0001
0010
0100
0001
1000
0000
0100
0001
,
0010
0100
0001
1000
,
0100
0000
0001
0000
0010
0100
0001
1000
,
0001
0010
0100
0001
,
1000
0100
0001
0010
0100
0000
0001
0000
,
0010
0000
0100
0000
0001
0000
0100
0010
,
0100
0100
2000
3000
,
1000
0001
0100
0010
,
0001
1000
0001
0100
0010
0000
0001
0100
,
1000
0100
1000
0001
,
0100
0000
0010
0000
0001
0100
1000
0010
,
0100
0010
0001
1000
0001
0100
0010
0001
,
1000
0001
0100
0010
0001
1000
0001
0100
,
0010
0001
1000
0001
0100
0010
0100
0001
,
1000
0100
0010
0001
,
0100
0010
0001
1000
0001
0100
0010
0001
,
0100
1000
0001
0100
0010
0001
1000
0001
,
0100
0010
0001
0100
0010
0001
0100
0010
,
0001
1000
0001
0100
0010
0001
1000
0001
,
0100
0010
0001
1000
0001
0100
0010
0001
,
1000
0001
0100
0010
0001
0100
1000
0001
,
0100
0010
0001
0100
0010
0001
1000
0001
,
0100
0001
0010
1000
0001
0100
0010
0001
,
0100
0000
0100
0000
0000
0001
0000
0000
0010
0000
0010
0000
0000
0100
0000
0000
,
1000
0100
0001
0010
0100
0001
1000
0001
,
0010
0100
0001
0100
0001
0010
0100
0001
,
1000
0001
0010
0100
0001
1000
0001
0010
,
0100
0001
1000
0001
0010
0100
0001
0100
,
0001
0010
0100
0001
1000
0001
0010
0100
,
0001
0100
0001
0010
0100
0001
1000
0001
,
0010
0000
0000
0100
0000
0000
1000
0000
0000
0100
0000
0000
0001
0000
0000
0000
,
1000
0100
0001
0010
0100
0001
1000
0001
,
0010
0100
0001
0010
0100
0001
1000
0001
,
0010
0100
0001
1000
0001
0010
0100
0001
,
1000
0001
0010
0100
0001
0100
0001
0010
,
0100
0001
1000
0001
0010
0100
0001
1000
,
0001
0100
0001
0010
0100
0001
1000
0001
,
0010
0000
0100
0000
0000
0001
0000
0000
0001
0000
0100
0000
0001
0000
0010
0100
,
1000
0010
0001
0100
0010
0001
0100
1000
,
0001
0100
0010
0001
1000
0001
0100
0010
,
0001
0100
0001
0100
0010
0001
1000
0001
,
0100
0010
0001
1000
0001
0100
0010
0001
,
0100
0001
0100
0010
0001
1000
0001
0100
,
0010
0001
1000
0001
0100
0010
0100
0001
,
2000
0200
3300
0010
,
0200
0000
0300
0010
,
2000
0200
3300
0010
,
0002
0000
0000
0003
,
0010
0001
1000
0100
,
0010
0100
0001
1000
0001
0000
0010
0100
,
0001
0001
1000
0001
,
0100
0000
0010
0000
0100
0010
0001
0100
,
1000
0001
0100
0010
,
0001
1000
0001
0100
0010
0000
0001
0100
,
1000
0000
0100
0000
0010
0000
0100
0010
,
0001
0100
2000
3000
,
0100
0001
0010
0100
0001
1000
0001
0010
,
0100
0001
1000
0001
0010
0100
0001
0100
,
0001
0010
0100
0001
1000
0001
0010
0100
,
0001
1000
0001
0010
0100
0001
1000
0001
,
0010
0100
0001
1000
0001
0010
0100
0001
,
0010
0001
1000
0001
0100
0010
0001
1000
,
0100
0001
0100
0001
0010
0100
0001
0100
,
1000
0001
0100
0010
,
0100
0000
0010
0000
0000
0001
0000
0000
1000
0000
0000
0000
0100
0001
0100
0001
,
0100
0010
0100
0010
0001
1000
0001
0100
,
0010
0001
1000
0001
0100
0010
0001
1000
,
0001
0100
0010
0001
1000
0001
0100
0010
,
0001
1000
0001
0100
0010
0001
1000
0001
,
0100
0010
0001
1000
0001
0100
0010
1000
,
0001
0100
0010
0001
1000
0001
0100
0010
,
0010
0000
0001
0000
0000
0100
0000
0000
0010
0000
0001
0000
0100
0000
0001
0010
,
0010
0001
0100
0010
0001
1000
0001
0100
,
0010
0001
1000
0001
0100
0010
0001
0100
,
1000
0010
0001
1000
0001
0100
0010
0001
,
1000
0001
0100
0010
0001
0100
1000
0100
,
0100
1000
1000
0001
0100
0010
0001
0100
,
0001
0100
0010
0001
1000
0001
0100
0010
,
0100
0000
0010
0000
0000
0001
0000
0000
1000
0000
0001
0000
0100
0000
0010
0100
,
0001
0100
0010
0001
1000
0001
0100
0010
,
0001
1000
0001
0100
0010
0001
0100
0001
,
0100
0010
0001
1000
0001
0100
0010
0001
,
1000
0001
0100
0010
0001
0100
0001
0100
,
0010
0001
1000
0001
0100
0010
0001
1000
,
0001
0100
0010
0001
1000
0001
0100
0010
,
0001
0000
0100
0000
0000
1000
0000
0000
0100
0000
0001
0000
0010
0000
0100
0001
,
1000
0001
0100
0010
0001
1000
0001
0100
,
0010
0001
1000
0001
0100
0001
0010
0100
,
0001
0100
0020
0000
,
0000
0000
0030
0000
;

//---------------dance-single - ----------------
#NOTES:
     dance-single:
     :
     Easy:
     6:
     0.295159,0.366417,0.000000,0.155097,0.000000,373.000000,373.000000,0.000000,28.000000,0.000000,0.000000,0.295159,0.366417,0.000000,0.155097,0.000000,373.000000,373.000000,0.000000,28.000000,0.000000,0.000000:
0000
0000
0000
0000
,
0000
0000
0000
0000
,
0200
0020
0000
0330
,
2000
0000
0000
0000
,
0000
0000
0000
3000
,
0100
0010
0001
0100
,
2000
0000
0000
3000
,
0100
0001
1000
0001
,
0020
0000
0000
0030
,
0100
0001
1000
0001
,
0020
0000
0030
0100
,
0001
1000
0002
0000
,
0000
0000
0000
0003
,
0010
0100
0001
1000
,
0002
0000
0000
0003
,
0010
0100
0001
1000
,
0200
0000
0000
0300
,
0100
0000
0010
0000
0001
0100
0001
0100
,
2000
0000
0000
0000
3000
0000
1000
0100
,
0001
0001
0100
0010
,
1000
0000
0100
0000
0001
0010
0100
0000
,
0010
0000
0001
0100
0001
0100
1000
0000
,
0100
0000
0010
0000
1000
0100
0001
0000
,
0010
0000
0001
0100
0001
0100
0001
0100
,
1000
0000
0010
0000
0001
0100
1000
0000
,
0100
0000
0010
0100
0001
0100
1000
0000
,
0001
0000
0100
0000
0010
0001
0100
0000
,
0100
0000
0100
0010
0001
0100
0001
0100
,
2000
0000
0000
3000
,
1000
0000
0100
0000
0001
0010
0100
0000
,
0100
0000
0010
0100
0001
0100
1000
0010
,
0100
0000
0010
0000
0001
0100
1000
0000
,
0100
0000
0010
0000
0001
0100
1000
0010
,
0100
0000
0001
0000
1000
0010
0100
0000
,
0001
0000
1000
0000
0100
0001
0010
0000
,
0200
0000
0000
0300
,
0001
0000
1000
0000
0100
0001
0010
0000
,
0010
0000
0100
0000
0001
1000
0100
0010
,
0100
0000
0010
0000
0001
0100
1000
0000
,
0100
0000
0010
0100
0001
0100
1000
0000
,
0100
0000
0010
0000
0001
0100
1000
0000
,
0100
0000
0010
0001
0100
0010
1000
0001
,
0200
0000
0000
0300
,
0100
0000
0010
0000
0001
0100
1000
0000
,
0010
0000
0100
0001
0100
0010
0001
0100
,
1000
0000
0001
0000
0100
0010
0001
0000
,
1000
0000
0001
0000
0100
0010
1000
0100
,
0001
0100
0010
0001
,
1000
0001
0100
0010
,
2000
0200
0000
3300
,
0020
0000
0000
0030
,
0200
0020
0000
0330
,
0200
0000
0000
0000
,
0000
0000
0000
0300
,
0010
0001
1000
0100
,
0020
0000
0000
0030
,
0100
0001
1000
0001
,
0020
0000
0000
0030
,
0100
0001
1000
0001
,
0020
0000
0030
0100
,
0001
2000
0000
3000
,
0100
0001
0100
0001
,
1000
0000
0100
0000
0001
0010
0100
0000
,
0001
1000
0100
0001
,
0010
0000
0100
0000
0001
0010
0100
0000
,
0001
0010
0100
0001
,
1000
0000
0001
0000
0010
0100
0001
0000
,
1000
0100
0001
0010
0100
0001
1000
0001
,
0010
0100
0010
0100
,
0020
0000
0000
0030
,
0100
0000
0010
0000
0001
0100
1000
0000
,
0100
0000
0001
1000
0100
0001
0010
0100
,
0001
0000
0010
0000
0100
0001
1000
0000
,
0100
0000
0001
0000
0010
0100
0001
1000
,
0001
0000
0010
0000
0100
0001
0010
0000
,
0100
0000
0001
0100
1000
0100
0001
0010
,
0200
0000
0000
0300
,
0001
0000
1000
0000
0100
0001
0010
0000
,
0100
0000
0001
0010
0100
0001
1000
0001
,
0010
0000
0010
0000
0001
1000
0100
0000
,
0010
0000
0001
0000
0100
0001
1000
0001
,
0010
0100
0001
1000
,
0001
0010
0200
0000
,
0000
0000
0000
0300
,
0100
0000
1000
0000
0001
0010
0100
0000
,
0001
0000
1000
0001
0100
0010
0100
0001
,
0100
0000
0010
0000
0001
0100
1000
0000
,
0001
0000
0010
0000
1000
0100
0001
0100
,
1000
0000
0100
0000
0001
0100
0010
0000
,
0001
0000
1000
0100
0001
0010
0100
0001
,
2000
0000
0000
3000
,
0100
0000
0001
0000
0010
0100
0001
0000
,
1000
0000
0100
0001
0010
0100
0001
0100
,
0001
0010
0200
0000
,
0000
0000
0300
0000
;

//---------------dance-single - ----------------
#NOTES:
     dance-single:
     :
     Beginner:
     2:
     0.079131,0.103029,0.000000,0.000000,0.000000,100.000000,100.000000,0.000000,0.000000,0.000000,0.000000,0.079131,0.103029,0.000000,0.000000,0.000000,100.000000,100.000000,0.000000,0.000000,0.000000,0.000000:
// measure 0
0000
0000
0000
0000
,  // measure 1
0000
0000
0000
0000
,  // measure 2
1000
0000
0000
0000
,  // measure 3
0100
0000
0000
0000
,  // measure 4
0000
0000
0000
0000
,  // measure 5
0010
0000
0100
0000
,  // measure 6
0001
0000
0000
0000
,  // measure 7
0000
0000
0000
0000
,  // measure 8
1000
0000
0100
0000
,  // measure 9
0001
0000
0000
0000
,  // measure 10
0000
0000
0000
0000
,  // measure 11
0010
0000
0100
0000
,  // measure 12
0001
0000
0000
0000
,  // measure 13
0001
0000
1000
0000
,  // measure 14
0100
0000
0000
0000
,  // measure 15
0001
0000
1000
0000
,  // measure 16
0100
0000
0000
0000
,  // measure 17
0001
0000
1000
0000
,  // measure 18
0100
0000
0000
0000
,  // measure 19
0000
0000
0000
0000
,  // measure 20
0010
0000
0000
0000
,  // measure 21
0100
0000
0000
0000
,  // measure 22
1000
0000
0000
0000
,  // measure 23
0001
0000
0000
0000
,  // measure 24
0010
0000
0000
0000
,  // measure 25
0100
0000
0000
0000
,  // measure 26
1000
0000
0000
0000
,  // measure 27
0001
0000
0000
0000
,  // measure 28
1000
0000
0000
0000
,  // measure 29
1000
0000
0000
0000
,  // measure 30
0100
0000
0000
0000
,  // measure 31
0001
0000
0000
0000
,  // measure 32
0010
0000
0000
0000
,  // measure 33
0100
0000
0000
0000
,  // measure 34
1000
0000
0000
0000
,  // measure 35
0100
0000
0000
0000
,  // measure 36
0001
0000
0000
0000
,  // measure 37
1000
0000
0000
0000
,  // measure 38
0100
0000
0000
0000
,  // measure 39
0001
0000
0000
0000
,  // measure 40
0010
0000
0000
0000
,  // measure 41
0100
0000
0000
0000
,  // measure 42
1000
0000
0000
0000
,  // measure 43
0100
0000
0000
0000
,  // measure 44
0001
0000
0000
0000
,  // measure 45
0010
0000
0000
0000
,  // measure 46
0100
0000
0000
0000
,  // measure 47
1000
0000
0000
0000
,  // measure 48
0100
0000
0000
0000
,  // measure 49
0001
0000
0000
0000
,  // measure 50
0010
0000
0000
0000
,  // measure 51
0100
0000
0000
0000
,  // measure 52
1000
0000
0000
0000
,  // measure 53
0100
0000
0000
0000
,  // measure 54
0010
0000
0100
0000
,  // measure 55
0001
0000
0000
0000
,  // measure 56
1000
0000
0100
0000
,  // measure 57
0001
0000
0000
0000
,  // measure 58
0010
0000
0100
0000
,  // measure 59
0001
0000
0000
0000
,  // measure 60
1000
0000
0100
0000
,  // measure 61
0001
0000
0000
0000
,  // measure 62
0010
0000
0100
0000
,  // measure 63
0001
0000
0000
0000
,  // measure 64
1000
0000
0100
0000
,  // measure 65
0001
0000
0000
0000
,  // measure 66
0010
0000
0100
0000
,  // measure 67
0001
0000
0000
0000
,  // measure 68
0000
0000
0000
0000
,  // measure 69
1000
0000
0000
0000
,  // measure 70
0100
0000
0000
0000
,  // measure 71
0001
0000
0000
0000
,  // measure 72
0010
0000
0000
0000
,  // measure 73
0100
0000
0000
0000
,  // measure 74
0001
0000
0000
0000
,  // measure 75
1000
0000
0000
0000
,  // measure 76
0100
0000
0000
0000
,  // measure 77
0010
0000
0000
0000
,  // measure 78
0100
0000
0000
0000
,  // measure 79
0001
0000
0000
0000
,  // measure 80
0010
0000
0000
0000
,  // measure 81
0100
0000
0000
0000
,  // measure 82
0001
0000
0000
0000
,  // measure 83
1000
0000
0000
0000
,  // measure 84
0100
0000
0000
0000
,  // measure 85
0001
0000
0000
0000
,  // measure 86
1000
0000
0000
0000
,  // measure 87
0100
0000
0000
0000
,  // measure 88
0001
0000
0000
0000
,  // measure 89
0010
0000
0000
0000
,  // measure 90
0100
0000
0000
0000
,  // measure 91
0001
0000
0000
0000
,  // measure 92
1000
0000
0000
0000
,  // measure 93
0100
0000
0000
0000
;
