#TITLE:breathe;
#SUBTITLE:;
#ARTIST:Michelle Branch;
#TITLETRANSLIT:;
#SUBTITLETRANSLIT:;
#ARTISTTRANSLIT:;
#GENRE:;
#CREDIT:;
#BANNER:;
#BACKGROUND:;
#LYRICSPATH:;
#CDTITLE:;
#MUSIC:Michelle Branch - Breathe [Official Music Video].mp3;
#OFFSET:0.000000;
#SAMPLESTART:100.059883;
#SAMPLELENGTH:12.000000;
#SELECTABLE:YES;
#BPMS:0.000000=117.000000
,164.000000=118.000000
,196.000000=117.000000
;
#STOPS:0.000000=0.500000
;
#BGCHANGES:0.000=Michelle Branch - Breathe [Official Music Video].mp4=1.000=0=0=1=====,
99999=-nosongbg-=1.000=0=0=0 // don't automatically add -songbackground-
;
#KEYSOUNDS:;
#ATTACKS:;

//---------------dance-single - ----------------
#NOTES:
     dance-single:
     :
     Hard:
     7:
     0.228565,0.287286,0.051763,0.174113,0.000000,340.000000,329.000000,11.000000,37.000000,0.000000,0.000000,0.228565,0.287286,0.051763,0.174113,0.000000,340.000000,329.000000,11.000000,37.000000,0.000000,0.000000:
// measure 0
0000
0000
0000
0000
,  // measure 1
0000
0000
0000
0000
,  // measure 2
0000
0000
0000
0000
,  // measure 3
0000
0000
0000
0000
0000
0010
1000
0001
,  // measure 4
0000
0100
0000
0010
0000
0001
0000
1000
,  // measure 5
0000
0100
0000
0000
0000
0001
0100
1000
,  // measure 6
0000
0010
0000
0001
0000
0100
0000
1000
,  // measure 7
0000
0000
0000
0000
0000
0001
0100
2000
,  // measure 8
0000
3000
0000
0100
0001
1000
0001
0010
,  // measure 9
0000
0100
0000
0000
0000
1000
0100
0001
,  // measure 10
0000
0100
0001
1000
0000
0100
0000
0001
,  // measure 11
0000
0000
0000
0000
0000
0001
0100
1000
,  // measure 12
0000
0100
0000
0100
0000
0010
0000
0001
,  // measure 13
0000
0001
0000
0000
0000
0001
0100
1000
,  // measure 14
0000
0000
0000
0100
0000
0001
0000
2000
,  // measure 15
0000
0000
0000
3000
0100
0010
0001
0100
,  // measure 16
1000
0000
0100
0010
0000
0001
0000
0100
,  // measure 17
0000
0010
0000
0001
0100
0010
0001
0100
,  // measure 18
1000
0000
0100
0001
0000
1000
0000
0200
,  // measure 19
0000
0000
0000
0000
0000
0000
0000
0010
,  // measure 20
0002
0000
0000
0000
0000
0000
0303
0010
,  // measure 21
0000
0001
0100
0010
0001
0100
1000
0000
,  // measure 22
0200
0000
0000
0000
0000
0000
0300
0001
,  // measure 23
0000
0010
0100
0001
1000
0001
0100
0000
,  // measure 24
0020
0000
0000
0000
0030
0001
0100
0001
,  // measure 25
0000
0100
0000
1000
0000
0001
0000
0100
,  // measure 26
0000
0010
0000
0100
0001
1000
0000
0000
,  // measure 27
0000
0000
0000
0000
0001
0100
1000
0000
,  // measure 28
2002
0000
0000
0000
0000
0000
3003
0001
,  // measure 29
0010
0100
0001
1000
0100
0000
0001
0000
,  // measure 30
0010
0000
0100
0000
1000
0000
0000
0001
,  // measure 31
0000
0100
0010
0001
0100
0000
1000
1000
,  // measure 32
0000
0000
2002
0000
0000
0000
3003
0001
,  // measure 33
0000
0001
0100
0010
0001
0000
1000
0000
,  // measure 34
0100
0000
0100
0000
1000
0000
0000
0100
,  // measure 35
0000
0010
0001
0100
1000
0000
0200
0000
,  // measure 36
0000
0000
0300
0000
0100
0001
1000
0000
,  // measure 37
1001
0202
0000
0000
,  // measure 38
0000
0000
0000
0000
0303
0000
0100
0001
,  // measure 39
1000
0100
0010
0001
,  // measure 40
1000
0000
0001
0000
0100
0010
0001
0100
,  // measure 41
0000
0100
0000
0010
0000
1000
0001
0010
,  // measure 42
0000
0100
0000
0000
0000
0001
0100
1000
,  // measure 43
0000
0001
0000
0100
0000
0010
0000
0001
,  // measure 44
0000
1000
0000
0100
0000
0001
0100
1000
,  // measure 45
0000
0010
0000
0001
0000
0100
0000
0010
,  // measure 46
0000
0001
0000
1000
0000
0000
0100
0001
,  // measure 47
0000
0001
0000
1000
0000
0001
0000
0100
,  // measure 48
0000
0000
0000
0000
0000
0000
0000
0010
,  // measure 49
0200
0000
0000
0000
0000
0000
0300
0010
,  // measure 50
0000
0001
0100
0010
0001
0100
1000
0000
,  // measure 51
0200
0000
0000
0000
0300
0000
0100
0010
,  // measure 52
0000
0001
0100
0010
0001
0100
1000
0000
,  // measure 53
0200
0000
0000
0000
0300
0001
0000
0010
,  // measure 54
0000
0010
0000
0001
0000
0100
0000
0010
,  // measure 55
0000
0001
0000
0100
0000
1000
0000
0000
,  // measure 56
0000
0000
0000
0000
0100
0001
0010
0000
,  // measure 57
2002
0000
0000
0000
0000
0000
3003
0001
,  // measure 58
0000
0100
0010
0001
0100
0000
1000
0000
,  // measure 59
0001
0000
0100
0000
1000
0000
0000
0100
,  // measure 60
0000
0010
0001
0100
1000
0000
0100
0000
,  // measure 61
0000
0000
2002
0000
0000
0000
3003
0001
,  // measure 62
0000
0010
0001
0100
1000
0000
0010
0000
,  // measure 63
0001
0000
1000
0000
0100
0000
0000
0100
,  // measure 64
0000
0010
0001
0100
1000
0000
0200
0000
,  // measure 65
0000
0000
0300
0000
0100
0001
1000
0000
,  // measure 66
1001
0020
0000
0000
,  // measure 67
0000
0000
0000
0000
0000
0000
0030
0100
,  // measure 68
0001
0020
0000
0000
,  // measure 69
0000
0000
0000
0000
,  // measure 70
0000
0000
0000
0030
0000
0100
0000
0001
,  // measure 71
0000
0001
0000
0100
0000
0010
0000
0100
,  // measure 72
0000
0000
0000
0000
0010
0001
0100
2000
,  // measure 73
0000
0000
0000
0000
,  // measure 74
0000
0200
0000
0000
0000
0000
0000
0000
,  // measure 75
0000
0000
3300
0010
0000
0001
0000
2000
,  // measure 76
0000
0000
0000
0200
,  // measure 77
0000
0000
0000
0000
,  // measure 78
0000
0000
0000
3300
,  // measure 79
0001
0100
1000
0000
0000
0000
2002
0000
,  // measure 80
0000
0000
3003
0100
0000
0010
0001
0100
,  // measure 81
1000
0010
0001
1000
,  // measure 82
0100
0000
0000
0001
0000
0010
0100
0001
,  // measure 83
0100
1000
0000
0202
,  // measure 84
0000
0000
0303
0001
0000
0010
0001
0100
,  // measure 85
1000
0010
0001
1000
,  // measure 86
0100
0000
0000
0100
0000
0010
0001
0100
,  // measure 87
1000
2002
0000
0000
,  // measure 88
0000
0000
0000
0000
,  // measure 89
0000
0000
0000
0000
,  // measure 90
0000
0000
0000
3003
,  // measure 91
1000
0000
0100
0000
0000
0000
1000
0100
,  // measure 92
0001
0010
0000
0100
0000
0001
0000
1000
,  // measure 93
0000
0100
0001
0000
2000
0000
0000
0000
,  // measure 94
0000
0000
0000
0200
0000
0000
0000
0300
,  // measure 95
3000
0100
0010
0100
0000
1000
0000
0010
,  // measure 96
0000
0001
0000
1000
0000
0100
0000
0000
,  // measure 97
0000
0001
1000
0100
0000
0001
0000
0100
,  // measure 98
0000
0010
0000
0100
0202
0000
0000
0000
,  // measure 99
0000
0000
0000
0000
,  // measure 100
0000
0000
0000
0000
,  // measure 101
0000
0000
0000
0303
;
