#TITLE:bout to lose it;
#SUBTITLE:;
#ARTIST:Dinosaur Pile Up;
#TITLETRANSLIT:;
#SUBTITLETRANSLIT:;
#ARTISTTRANSLIT:;
#GENRE:;
#CREDIT:;
#BANNER:;
#BACKGROUND:;
#LYRICSPATH:;
#CDTITLE:;
#MUSIC:Dinosaur Pile-Up - 'Bout To Lose It (Official Music Video).mp3;
#OFFSET:0.000000;
#SAMPLESTART:100.059883;
#SAMPLELENGTH:12.000000;
#SELECTABLE:YES;
#BPMS:0.000000=149.500000
,44.000000=149.000000
,60.000000=144.000000
,68.000000=150.000000
,72.000000=149.000000
,76.000000=144.000000
,100.000000=148.000000
,147.000000=155.000000
,156.000000=149.000000
,312.000000=150.000000
,324.000000=156.000000
,341.000000=150.000000
,424.000000=149.000000
,440.000000=144.000000
,463.000000=160.000000
,464.000000=149.000000
,480.000000=156.000000
,508.000000=132.000000
,516.000000=149.000000
,526.000000=156.000000
;
#STOPS:0.000000=0.850000,
232.000000=1.700000
;
#BGCHANGES:0.000=Dinosaur Pile-Up - 'Bout To Lose It (Official Music Video).mp4=1.000=0=0=1=====,
99999=-nosongbg-=1.000=0=0=0 // don't automatically add -songbackground-
;
#KEYSOUNDS:;
#ATTACKS:;

//---------------dance-single - ----------------
#NOTES:
     dance-single:
     :
     Hard:
     10:
     0.347243,0.700116,0.134541,0.251142,0.015696,542.000000,512.000000,30.000000,56.000000,0.000000,0.000000,0.347243,0.700116,0.134541,0.251142,0.015696,542.000000,512.000000,30.000000,56.000000,0.000000,0.000000:
// measure 0
0000
0000
0000
0000
,  // measure 1
0000
0000
0000
0000
,  // measure 2
0000
0000
0000
0000
,  // measure 3
1000
0001
0100
0010
,  // measure 4
0100
0010
0001
1000
,  // measure 5
0001
0100
0010
0001
,  // measure 6
1000
0001
0100
0010
,  // measure 7
0001
0100
0010
0001
1000
0001
0100
0010
,  // measure 8
0001
1000
0001
0100
0001
1000
0100
0100
,  // measure 9
0010
0001
1000
0001
0100
0010
0010
0001
,  // measure 10
0100
0010
0001
1000
0001
0100
0010
0001
0001
1000
0001
0100
1000
0000
0000
0000
,  // measure 11
0001
1000
0001
0100
0010
0001
0100
1000
,  // measure 12
0100
0010
0001
1000
0001
0100
0010
0001
,  // measure 13
1000
0001
0100
0010
0001
1000
0001
0100
,  // measure 14
0010
0001
1000
0001
0100
0010
0010
0000
,  // measure 15
2002
0000
0000
0000
,  // measure 16
0000
0000
0000
0000
,  // measure 17
0000
0000
0000
0000
,  // measure 18
0000
0000
0000
3003
,  // measure 19
0000
0100
0001
1000
0001
0010
0001
0100
,  // measure 20
1000
0000
0001
1000
0001
0100
1001
0000
,  // measure 21
0010
0001
0100
0010
0001
1000
0001
0000
,  // measure 22
0100
0010
0001
1000
0001
0100
0010
0000
,  // measure 23
0000
0100
0001
0100
0010
0001
1000
0100
,  // measure 24
0000
0001
1000
0001
0100
0010
1001
0000
,  // measure 25
0100
0010
0001
1000
0001
0100
0010
0000
,  // measure 26
0100
0010
0001
1000
0001
0100
1000
0000
,  // measure 27
0100
0001
1000
0001
0020
0000
0030
0000
,  // measure 28
0200
0300
0020
0030
,  // measure 29
0200
0000
0300
0001
0020
0000
0030
0010
,  // measure 30
0200
0000
0000
0300
,  // measure 31
1001
1001
0001
1000
,  // measure 32
0001
0100
0010
2002
,  // measure 33
0000
0000
0000
3003
,  // measure 34
0010
0100
0001
1000
,  // measure 35
1001
1001
1000
0001
,  // measure 36
0100
1000
0001
0200
,  // measure 37
0000
0000
0000
0000
,  // measure 38
0020
0030
0002
0303
,  // measure 39
0100
0000
1000
0001
0010
0000
0001
1000
,  // measure 40
0000
0100
0000
0000
0001
0000
0100
1000
,  // measure 41
0000
0010
0000
0000
0001
0000
0100
1000
,  // measure 42
0000
0001
0000
0000
2002
0000
3003
0000
,  // measure 43
1001
0000
0010
0100
0001
0000
1000
0100
,  // measure 44
0000
0000
0000
0000
0001
0000
0100
1000
,  // measure 45
0000
0010
0000
0000
1000
0000
0100
0001
,  // measure 46
2002
3003
2002
3003
,  // measure 47
1001
0100
0010
0001
1000
0001
0100
1000
,  // measure 48
0000
0001
1000
0001
0100
0010
1001
0000
,  // measure 49
0100
0010
0001
1000
0001
0100
1000
0000
,  // measure 50
0100
0010
0001
1000
0001
0100
1001
0000
,  // measure 51
0000
0100
0010
0001
1001
0001
0100
1000
,  // measure 52
0000
0001
1000
0001
0100
0010
1001
0000
,  // measure 53
0100
0010
0001
1000
0001
0100
1000
0000
,  // measure 54
0100
0010
0001
1000
0001
0100
1000
0000
,  // measure 55
0010
0001
0100
0001
0020
0000
0030
0000
,  // measure 56
0200
0300
0020
0030
,  // measure 57
0002
0000
0000
0000
0003
0000
0000
0000
0100
0000
0000
0001
0000
0000
0010
0000
,  // measure 58
0000
1001
0001
0001
,  // measure 59
0100
0001
1000
0200
,  // measure 60
0000
0000
0000
0300
,  // measure 61
0100
0001
1000
0100
,  // measure 62
0010
0100
0001
0001
,  // measure 63
1000
0001
0100
0020
,  // measure 64
0000
0000
0000
0000
,  // measure 65
0200
0300
2000
3030
,  // measure 66
0001
0000
1000
0100
0001
0000
0100
1000
,  // measure 67
0000
0100
0000
0000
0001
0000
0100
1000
,  // measure 68
0000
0010
0000
0000
0010
0000
0100
1000
,  // measure 69
0000
0001
0000
0000
2002
0000
3003
0000
,  // measure 70
1001
0000
0001
0100
0001
0000
1000
0100
,  // measure 71
0000
0001
0000
0000
1000
0000
0100
0001
,  // measure 72
0000
0010
0000
0000
0001
0100
0000
1000
,  // measure 73
0000
0001
0000
0000
2000
0000
3000
0001
,  // measure 74
0020
0000
0030
0010
,  // measure 75
0100
0000
0001
0010
0000
0100
0001
2000
,  // measure 76
0000
0000
0000
0000
,  // measure 77
3000
0010
0100
0001
0000
1000
0100
0000
,  // measure 78
0000
0001
0010
0000
0000
0000
0000
0000
,  // measure 79
0001
0000
0010
0100
0000
0001
2000
0000
,  // measure 80
0000
0000
0000
0000
,  // measure 81
0000
0000
0000
3000
,  // measure 82
0100
0000
1000
0000
0100
0001
0100
0000
,  // measure 83
0010
0000
0100
0001
0000
0100
2000
0000
,  // measure 84
0000
0000
0000
0000
,  // measure 85
3000
0000
0100
0000
0001
0000
0100
1000
,  // measure 86
0000
0000
0100
0001
0000
0000
0100
0001
,  // measure 87
0000
0000
0100
0001
0000
0000
1000
0220
,  // measure 88
0000
0000
0000
0000
,  // measure 89
0000
0000
0000
0330
,  // measure 90
0100
0001
1000
0100
,  // measure 91
0001
0000
0100
0000
0010
0000
0001
0001
,  // measure 92
1000
0010
0001
1000
,  // measure 93
0001
0000
0100
0000
0010
0000
0001
1000
,  // measure 94
0100
0100
0010
0001
,  // measure 95
0100
0001
0100
0010
,  // measure 96
0001
1000
0001
0100
,  // measure 97
0010
0001
1000
0001
,  // measure 98
0100
0010
1000
0001
,  // measure 99
0100
0000
0010
0000
0100
0000
0001
0100
,  // measure 100
1000
0010
0001
1000
,  // measure 101
0001
0000
0100
0000
0010
0000
0001
0100
,  // measure 102
2000
0000
0000
3000
,  // measure 103
0002
0000
0000
0003
,  // measure 104
0200
0000
0000
0300
,  // measure 105
2000
0000
0000
3000
,  // measure 106
0001
1000
0001
0100
,  // measure 107
0010
0001
1000
0200
,  // measure 108
0000
0000
0000
0300
,  // measure 109
0001
0100
0001
0100
,  // measure 110
1000
0000
0001
0100
,  // measure 111
0001
1000
0100
0020
,  // measure 112
0000
0000
0000
0000
,  // measure 113
0200
0300
2000
3030
,  // measure 114
2002
3003
0010
0010
,  // measure 115
0001
0100
0010
0002
,  // measure 116
0000
0000
0000
0003
,  // measure 117
0001
0100
0001
1000
,  // measure 118
0100
0001
0100
0010
,  // measure 119
0001
1000
0001
2000
,  // measure 120
0000
0000
0000
0000
,  // measure 121
0020
0030
0002
3003
,  // measure 122
0000
0000
0001
0010
0100
0000
1000
0100
,  // measure 123
0000
0001
0000
0000
0001
0000
0100
1000
,  // measure 124
0000
0000
0000
0000
0001
0000
0100
1000
,  // measure 125
0000
0100
0000
0000
2002
0000
3003
0000
,  // measure 126
2002
0000
3003
0000
0100
0001
1000
0000
,  // measure 127
0100
0001
0000
1000
0000
0000
0001
0000
,  // measure 128
0100
0010
0000
0100
0000
0000
0100
0010
,  // measure 129
1001
1001
1001
0000
1001
0000
1001
0000
,  // measure 130
2002
0000
0000
0000
,  // measure 131
0000
0000
0000
0000
,  // measure 132
0000
0000
0000
0000
,  // measure 133
0000
3003
0000
0000
,  // measure 134
0100
0010
0001
1000
0001
0100
1000
0001
,  // measure 135
1000
0001
0100
0010
0100
0001
1000
0000
;
