#VERSION:0.83;
#TITLE:bluest flame;
#SUBTITLE:;
#ARTIST:Selena Gomez & Benny Blanco;
#TITLETRANSLIT:;
#SUBTITLETRANSLIT:;
#ARTISTTRANSLIT:;
#GENRE:;
#ORIGIN:;
#CREDIT:;
#BANNER:;
#BACKGROUND:;
#PREVIEWVID:;
#JACKET:;
#CDIMAGE:;
#DISCIMAGE:;
#LYRICSPATH:;
#CDTITLE:;
#MUSIC:Selena Gomez, benny blanco - Bluest Flame (Official Lyric Video).mp3;
#OFFSET:0.000000;
#SAMPLESTART:100.059883;
#SAMPLELENGTH:12.000000;
#SELECTABLE:YES;
#BPMS:0.000=136.500,
47.000=135.000,
160.000=138.000,
184.000=136.000,
188.000=133.000,
208.000=136.000;
#STOPS:0.000=0.200;
#DELAYS:;
#WARPS:;
#TIMESIGNATURES:0.000=4=4;
#TICKCOUNTS:0.000=4;
#COMBOS:0.000=1;
#SPEEDS:0.000=1.000=0.000=0;
#SCROLLS:0.000=1.000;
#FAKES:;
#LABELS:0.000=Song Start;
#BGCHANGES:;
#KEYSOUNDS:;
#ATTACKS:
;

//---------------dance-single - ----------------
#NOTEDATA:;
#CHARTNAME:;
#STEPSTYPE:dance-single;
#DESCRIPTION:;
#CHARTSTYLE:;
#DIFFICULTY:Hard;
#METER:14;
#RADARVALUES:0.763876,0.759693,0.771751,0.000000,0.419563,873.000000,747.000000,126.000000,0.000000,0.000000,0.000000,0.000000,0.000000,0.000000,0.763876,0.759693,0.771751,0.000000,0.419563,873.000000,747.000000,126.000000,0.000000,0.000000,0.000000,0.000000,0.000000,0.000000;
#CREDIT:;
#NOTES:
0000
0000
0000
0000
,
0000
0000
0000
0000
,
0000
0000
0000
0000
,
0000
0000
0000
0000
,
1100
0000
0000
0000
0100
0001
0100
0001
0100
0000
0010
0000
0100
0000
0000
0000
,
0001
1000
0001
1000
0100
0000
0001
0000
0010
0000
0000
0000
0100
0010
0001
0100
,
1000
0000
0001
0000
0100
0000
0000
0000
0100
0010
0100
0010
0100
0000
1000
0000
,
0001
0000
0000
0000
0001
0010
0001
0010
0001
0000
0100
0000
1000
0000
0000
0000
,
0110
0000
0000
0000
0100
0001
0100
0001
0100
0000
0100
0000
1000
0000
0000
0000
,
0100
0001
0100
0001
0100
0000
0010
0000
0100
0000
0000
0000
1000
0001
1000
0001
,
1000
0000
0100
0000
0100
0000
0000
0000
0100
0001
0010
0001
0100
0000
0100
0000
,
1000
0000
0000
0000
0100
0001
0100
0001
0100
0000
0010
0000
0001
0000
0000
0000
,
0110
0000
0000
0000
0100
0001
0100
0001
0100
0000
0010
0000
0001
0000
0000
0000
,
1000
0001
1000
0001
1000
0000
0100
0000
0010
0000
0000
0000
0010
0001
0010
0001
,
0010
0000
0100
0000
0001
0000
0000
0000
1000
0001
1000
0001
1000
0000
0100
0000
,
0001
0000
0000
0000
0010
0100
0010
0100
0010
0000
0100
0000
0001
0000
0000
0000
,
0110
0000
0000
0000
0100
0001
0100
0001
0100
0000
0010
0000
0100
0000
0000
0000
,
0100
0001
0100
0001
0100
0000
0010
0000
0100
0000
0000
0000
1000
0001
1000
0001
,
1000
0000
0100
0000
0001
0000
0000
0000
1000
0001
1000
0001
1000
0000
0100
0000
,
0010
0000
0000
0000
0100
0001
0100
0001
0100
0000
0010
0000
0100
0000
0000
0000
,
1001
0000
0000
0000
0010
0001
0010
0001
0010
0000
0100
0000
0001
0000
0000
0000
,
1000
0001
1000
0001
1000
0000
0001
0000
0100
0000
0000
0000
0010
0100
0010
0100
,
0010
0000
0001
0000
0010
0000
0000
0000
0100
0001
0100
0001
0100
0000
0100
0000
,
0010
0000
0000
0000
0100
0001
0100
0001
0100
0000
0010
0000
1001
0000
0000
0000
,
1001
0000
0000
0000
0010
0100
0010
0100
0010
0000
0001
0000
0100
0000
0000
0000
,
1000
0001
1000
0001
1000
0000
0100
0000
0001
0000
0000
0000
0010
0100
0010
0100
,
0010
0000
0100
0000
1000
0000
0000
0000
0100
0001
0100
0001
0100
0000
0001
0000
,
0010
0000
0000
0000
1000
0100
1000
0100
1000
0000
0100
0000
0001
0000
0000
0000
,
1001
0000
0000
0000
0010
0100
0010
0100
0010
0000
0100
0000
1000
0000
0000
0000
,
0100
0001
0100
0001
0100
0000
0010
0000
0001
0000
0000
0000
1000
0001
1000
0001
,
1000
0000
0100
0000
0010
0000
0000
0000
0001
0010
0001
0010
0001
0000
0100
0000
,
0010
0000
0000
0000
0001
0010
0001
0010
0001
0000
0100
0000
1000
0001
1000
0001
,
1000
0000
0100
0000
0001
0010
0001
0010
0001
0000
0010
0000
0100
0000
0101
0000
,
0100
0010
0100
0010
0100
0000
0001
0000
1000
0000
0101
0000
0010
0100
0010
0100
,
0010
0000
1000
0000
0001
0000
0110
0000
1000
0010
1000
0001
0010
0000
0100
0000
,
0010
0000
0011
0000
0100
0010
0100
0010
0001
0000
0100
0000
0010
0000
1001
0000
,
1001
0000
1001
0000
0100
0010
0100
0010
0100
0000
0001
0000
1000
0000
0101
0000
,
0010
0100
0010
0100
0001
0000
0010
0000
0100
0000
0101
0000
1000
0100
1000
0100
,
1000
0000
0100
0000
0001
0000
0110
0000
1000
0100
1000
0100
1000
0000
0100
0000
,
1001
0000
0110
0000
0010
0100
0010
0100
0010
0000
0100
0000
0011
0000
0100
0000
,
0100
0000
0010
0000
0100
0000
0010
0000
0001
0000
0100
0000
0010
0000
1000
0001
,
1000
0010
0100
0001
0100
0010
0001
0100
,
1000
0000
0010
0000
0001
0000
1000
0000
0001
0000
0100
0000
0010
0100
0001
0000
,
1000
1000
0100
0001
0100
0010
0001
1000
,
0001
0100
0010
0001
0100
0010
0001
0100
,
1000
0010
0001
1000
0001
0100
0010
0001
,
0100
0100
0010
0001
1000
0001
0100
0010
,
1001
0000
0001
0000
1001
0000
1000
0000
1001
0000
0001
0000
1000
0001
0100
0001
,
0100
0110
0010
0101
0100
0110
1000
1001
,
0100
0101
0001
1001
0100
0110
0100
0101
,
0001
0110
0010
1100
0100
0110
0100
0110
,
0001
1001
0010
0110
0100
0101
1000
0110
,
1001
0110
0001
1001
1000
1001
0010
0101
,
0100
1100
0100
0110
0010
0110
0010
1001
,
1000
1001
0010
0110
0010
0110
0001
0101
,
0100
0000
0010
0000
0100
0000
0001
0000
0100
0000
0010
0000
1000
0001
1000
0000
,
0101
0000
0000
0000
0010
0100
0010
0100
0010
0000
0100
0000
0001
0000
0000
0000
,
0010
0100
0001
0010
0100
0000
1000
0000
0100
0000
0000
0000
0010
0100
0010
0100
,
0010
0000
0100
0000
1000
0000
0000
0000
0100
0001
0100
0001
0100
0000
0001
0000
,
1000
0000
0000
0000
0100
0001
0100
0001
0100
0000
0010
0000
0100
0000
0000
0000
,
1001
0000
0000
0000
0100
1000
0100
0010
0001
0000
0100
0000
0010
0000
0000
0000
,
0100
1000
0100
1000
0100
0000
0010
0000
0100
0000
0000
0000
1000
0001
1000
0001
,
1000
0000
0010
0000
0100
0000
0000
0000
0001
0010
0001
0010
0001
0000
0010
0000
,
0100
0000
0000
0000
1000
0100
1000
0100
1000
0000
0100
0000
0001
0000
0000
0000
,
0110
0000
0110
0000
0001
1000
0001
1000
0001
0000
0010
0000
0100
0000
0101
0000
,
0010
0100
0010
0100
0001
0000
1000
0000
0100
0000
0101
0000
0010
0100
0010
0100
,
0010
0000
0100
0000
0001
0000
1001
0000
0010
0100
0010
0100
0010
0000
0100
0000
,
0001
0000
0110
0000
1000
0001
1000
0001
1000
0000
0100
0000
0001
0000
0101
0000
,
0110
0000
0110
0000
0001
1000
0001
1000
0010
0000
0100
0000
0100
0000
0101
0000
,
0010
0100
0010
0100
0001
0000
1000
0000
0100
0000
0110
0000
0001
0100
0001
0100
,
0001
0000
0010
0000
0100
0000
1001
0000
0010
0100
0010
0100
0010
0000
0100
0000
,
0001
0000
0110
0000
1000
0001
1000
0001
1000
0000
0100
0000
0001
0000
0000
0000
,
0110
0100
0100
0100
,
0100
0100
0100
0100
,
0110
0010
0010
0010
,
0000
0000
0000
0000
,
0101
0010
0001
0100
1000
0001
0100
0010
,
0000
0000
0100
0001
0100
0001
0100
1000
,
1001
0010
0100
0001
1000
0001
0010
0100
,
1100
0110
0101
0110
,
1000
1001
0010
0110
0001
0101
0010
0110
,
1000
1001
0010
0110
0001
0110
0001
0101
,
1000
0110
0001
0110
1000
1100
0010
0110
,
0010
0110
0001
0110
1000
0110
0001
0101
,
0010
0110
1000
0101
0010
0110
0001
0101
,
0100
0110
1000
0101
0010
0110
0001
0110
,
1000
0101
0100
0011
0100
0011
0100
1010
,
0001
0110
1000
0110
0001
0110
0110
0110
,
0100
0110
0000
0110
0000
1100
0000
0110
,
0000
0101
0000
0110
0000
1100
0000
0110
,
0000
0101
0000
0110
0000
1100
0000
0110
,
0000
0101
0000
0110
0000
1100
1100
1100
;

//---------------dance-single - ----------------
#NOTEDATA:;
#CHARTNAME:;
#STEPSTYPE:dance-single;
#DESCRIPTION:;
#CHARTSTYLE:;
#DIFFICULTY:Medium;
#METER:10;
#RADARVALUES:0.537251,0.506462,0.410376,0.000000,0.000000,614.000000,547.000000,67.000000,0.000000,0.000000,0.000000,0.000000,0.000000,0.000000,0.537251,0.506462,0.410376,0.000000,0.000000,614.000000,547.000000,67.000000,0.000000,0.000000,0.000000,0.000000,0.000000,0.000000;
#CREDIT:;
#NOTES:
0000
0000
0000
0000
,
0000
0000
0000
0000
,
0000
0000
0000
0000
,
0000
0000
0000
0000
,
0110
0000
1000
0100
0001
0100
0001
0000
,
0010
0100
0001
1000
0001
0000
0010
0100
,
0001
1000
0001
0000
0010
0100
0001
1000
,
0001
0000
0010
0100
0001
0100
0001
0000
,
1001
0000
0010
0100
0010
0100
0010
0000
,
0100
0001
0100
0001
1000
0000
0100
0001
,
0100
0001
0100
0000
0010
0100
0010
0001
,
0100
0000
0001
1000
0100
0001
0100
0000
,
0101
0000
0010
0100
0001
0100
0001
0000
,
1000
0100
0001
0100
0001
0000
1000
0100
,
0001
0100
0001
0000
0010
0100
0001
1000
,
0001
0000
0010
0100
0001
1000
0001
0000
,
0101
0000
0010
0100
0001
1000
0001
0000
,
0010
0100
0001
1000
0001
0000
0010
0100
,
0001
1000
0001
0000
0010
0100
0001
1000
,
0001
0000
0010
0100
0001
1000
0001
0000
,
0110
0000
0100
0001
0100
0001
1000
0000
,
0100
0001
0010
0100
0001
0000
0010
0100
,
0001
1000
0001
0000
0010
0100
0001
1000
,
0001
0000
0010
0100
0001
1000
0001
0000
,
0110
0000
0001
0100
0001
1000
0001
0000
,
0010
0100
0001
1000
0001
0000
0010
0100
,
0001
1000
0001
0000
0010
0100
0001
1000
,
0100
0000
0001
0010
0100
0001
1000
0000
,
0101
0000
0010
0100
0001
1000
0001
0000
,
0010
0100
0001
1000
0001
0000
0010
0100
,
0001
1000
0100
0000
0001
0010
0100
0001
,
1000
0000
0100
0001
0010
0100
0001
0000
,
0110
0000
0001
1000
0100
0001
0100
0000
,
0010
0100
0001
1000
0001
0000
0010
0100
,
0001
1000
0100
0000
0001
0100
0001
1000
,
0001
0000
0010
0100
0001
1000
0001
0000
,
0110
0000
0001
1000
0100
0001
0010
0000
,
0100
0001
1000
0001
0010
0000
0100
0001
,
1000
0001
0010
0000
0100
0001
1000
0001
,
0010
0000
0100
0001
1000
0001
0010
0100
,
0001
0100
0001
0010
0100
0001
1000
0001
,
0010
0100
0001
1000
0001
0010
0100
0001
,
1000
0001
0010
0100
0001
1000
0001
0010
,
0100
0001
1000
0001
0010
0100
0001
1000
,
0001
0010
0100
0001
0100
0001
0100
0001
,
0010
0100
1000
0100
0001
0010
0100
0001
,
1000
0001
0010
0100
0001
1000
0001
0010
,
0100
0001
1000
0001
0100
0010
0001
0100
,
1000
0010
0100
0001
1000
0001
0010
0100
,
0001
1000
0001
0010
0100
0001
1000
0001
,
0010
0100
0001
1000
0001
0010
0100
0001
,
1000
0001
0010
0100
0001
1000
0001
0010
,
0100
0001
1000
0001
0010
0100
0001
1000
,
0001
0010
0100
0001
1000
0001
0010
0100
,
0001
1000
0001
0010
0100
0001
1000
0001
,
0100
0001
0100
0001
0010
0100
0001
1000
,
1001
0000
0100
0001
0100
0001
1000
0000
,
0100
0001
0100
0001
0010
0000
0100
0001
,
1000
0001
0010
0000
0100
0001
0100
0001
,
0100
0000
0010
0100
0001
1000
0001
0000
,
1001
0000
0010
0100
0001
0100
0001
0000
,
1000
0100
0001
0100
0001
0000
0010
0100
,
0001
1000
0001
0000
0010
0100
0001
1000
,
0001
0000
0100
0001
0100
0001
0010
0000
,
0110
0000
0010
0100
0001
0100
0001
0000
,
0010
0100
0001
1000
0001
0000
0010
0100
,
0001
1000
0001
0000
0010
0100
0001
1000
,
0100
0000
0010
0100
0001
1000
0001
0000
,
0110
0000
0010
0100
0001
1000
0001
0000
,
0100
0010
0001
1000
0001
0000
0100
0010
,
0001
0100
0001
0000
0001
1000
0100
0001
,
0010
0000
0100
0001
1000
0001
0010
0000
,
0110
0100
0100
0100
,
0100
0100
0100
0100
,
0110
0010
0010
0010
,
0010
0010
0010
0010
,
1000
0100
0001
0100
,
0100
1000
0100
0001
,
0100
0001
0100
0000
,
0110
0101
0110
1001
,
0010
0110
0000
0101
0000
1100
0000
0110
,
0000
0101
0000
0110
0000
1100
0000
0110
,
0000
0101
0000
0110
0000
1100
0000
0110
,
0000
0101
0000
0110
0000
1100
0000
0110
,
0000
0101
0000
0110
0000
1100
0000
0110
,
0000
0101
0000
0110
0000
1100
0000
0110
,
0000
0101
0000
0110
0000
1100
0000
0110
,
0000
0101
0000
0110
0000
1100
0000
0110
,
0000
0101
0000
1100
0000
0110
0000
0101
,
0000
0110
0000
1100
0000
0110
0000
0101
,
0000
1100
0000
0110
0000
0110
0000
0110
,
0000
0101
0000
0101
0000
0110
0000
1001
;

//---------------dance-single - ----------------
#NOTEDATA:;
#CHARTNAME:;
#STEPSTYPE:dance-single;
#DESCRIPTION:;
#CHARTSTYLE:;
#DIFFICULTY:Easy;
#METER:4;
#RADARVALUES:0.310626,0.309083,0.104125,0.024500,0.000000,355.000000,338.000000,17.000000,4.000000,0.000000,0.000000,0.000000,0.000000,0.000000,0.310626,0.309083,0.104125,0.024500,0.000000,355.000000,338.000000,17.000000,4.000000,0.000000,0.000000,0.000000,0.000000,0.000000;
#CREDIT:;
#NOTES:
// measure 0
0000
0000
0000
0000
,  // measure 1
0000
0000
0000
0000
,  // measure 2
0000
0000
0000
0000
,  // measure 3
0000
0000
0000
0000
,  // measure 4
1001
0010
0100
0001
,  // measure 5
0100
0001
0010
0100
,  // measure 6
0001
1000
0001
0010
,  // measure 7
0100
0001
0100
0001
,  // measure 8
0110
0010
1000
0001
,  // measure 9
0010
0100
0001
1000
,  // measure 10
0001
0010
0100
0001
,  // measure 11
1000
0001
0010
0100
,  // measure 12
0101
0010
0100
0001
,  // measure 13
1000
0001
0010
0100
,  // measure 14
0001
0010
0100
0001
,  // measure 15
1000
0001
0010
0100
,  // measure 16
0110
0001
0100
0001
,  // measure 17
1000
0001
0010
0100
,  // measure 18
0001
0100
0001
1000
,  // measure 19
0001
0010
0100
0001
,  // measure 20
1001
0010
0100
0001
,  // measure 21
1000
0001
0010
0100
,  // measure 22
0001
1000
0001
0010
,  // measure 23
0100
0001
1000
0001
,  // measure 24
0110
0010
0100
0001
,  // measure 25
1000
0001
0010
0100
,  // measure 26
0001
1000
0001
0010
,  // measure 27
0100
0010
0001
1000
,  // measure 28
0101
0010
0100
0001
,  // measure 29
1000
0001
0010
0100
,  // measure 30
0001
1000
0001
0010
,  // measure 31
0010
0100
0001
1000
,  // measure 32
1001
0010
0100
0001
,  // measure 33
1000
0001
0010
0100
,  // measure 34
0001
1000
0001
0010
,  // measure 35
0100
0001
1000
0001
,  // measure 36
0110
0010
0100
0001
,  // measure 37
1000
0001
0010
0100
,  // measure 38
0001
1000
0001
0010
,  // measure 39
0100
0001
1000
0001
,  // measure 40
0010
0100
0001
1000
,  // measure 41
0010
0100
0001
1000
,  // measure 42
0001
0010
0100
0001
,  // measure 43
1000
0001
0010
0100
,  // measure 44
0001
1000
0001
0010
,  // measure 45
0100
0001
1000
0001
,  // measure 46
0010
0100
0001
1000
,  // measure 47
0001
0010
0100
0001
,  // measure 48
1000
0001
0010
0100
,  // measure 49
0001
1000
0001
0010
,  // measure 50
0100
0010
0100
0001
,  // measure 51
0100
0001
1000
0001
,  // measure 52
0010
0100
0001
0100
,  // measure 53
0001
1000
0001
0010
,  // measure 54
0100
0001
0100
0001
,  // measure 55
0010
0100
0001
0001
,  // measure 56
0110
0010
0100
0001
,  // measure 57
1000
0001
0010
0100
,  // measure 58
0001
0100
0001
0010
,  // measure 59
0100
0001
1000
0001
,  // measure 60
0101
0010
0100
0001
,  // measure 61
1000
0001
0010
0100
,  // measure 62
0001
0100
0001
0100
,  // measure 63
0001
0010
0100
0001
,  // measure 64
0101
1000
0100
0001
,  // measure 65
0010
0100
0001
1000
,  // measure 66
0001
0010
0100
0001
,  // measure 67
1000
0001
0010
0100
,  // measure 68
0110
0010
0100
0001
,  // measure 69
1000
0001
0010
0100
,  // measure 70
0001
0100
0001
0010
,  // measure 71
0100
0001
1000
0001
,  // measure 72
0110
0010
0010
0010
,  // measure 73
0010
0010
0010
0010
,  // measure 74
0110
0100
0100
0100
,  // measure 75
0100
0100
0100
0100
,  // measure 76
0001
1000
0001
1000
,  // measure 77
0001
1000
0001
1000
,  // measure 78
0001
1000
0001
1000
,  // measure 79
0001
1000
0001
1000
,  // measure 80
0010
0100
0001
0010
,  // measure 81
0100
1000
0100
0001
,  // measure 82
0010
0100
0001
1000
,  // measure 83
0001
0010
0100
0001
,  // measure 84
1000
0100
0001
0010
,  // measure 85
0100
0001
1000
0001
,  // measure 86
0010
0100
0001
1000
,  // measure 87
0001
0010
0100
0001
,  // measure 88
0220
0000
0000
0000
,  // measure 89
0000
0000
0000
0330
,  // measure 90
2002
0000
0000
0000
,  // measure 91
0000
0000
0000
3003
;

//---------------dance-single - ----------------
#NOTEDATA:;
#CHARTNAME:;
#STEPSTYPE:dance-single;
#DESCRIPTION:;
#CHARTSTYLE:;
#DIFFICULTY:Beginner;
#METER:2;
#RADARVALUES:0.059500,0.137813,0.104125,0.000000,0.000000,68.000000,51.000000,17.000000,0.000000,0.000000,0.000000,0.000000,0.000000,0.000000,0.059500,0.137813,0.104125,0.000000,0.000000,68.000000,51.000000,17.000000,0.000000,0.000000,0.000000,0.000000,0.000000,0.000000;
#CREDIT:;
#NOTES:
0000
0000
0000
0000
,
0000
0000
0000
0000
,
0000
0000
0000
0000
,
0000
0000
0000
0000
,
0110
0000
0000
0000
,
0000
0000
0000
0000
,
0000
0000
0000
0000
,
0000
0000
0000
0000
,
1001
0000
0000
0000
,
0000
0000
0000
0000
,
0000
0000
0000
0000
,
0000
0000
0000
0000
,
0110
0000
0000
0000
,
0000
0000
0000
0000
,
0000
0000
0000
0000
,
0000
0000
0000
0000
,
1001
0000
0000
0000
,
0000
0000
0000
0000
,
0000
0000
0000
0000
,
0000
0000
0000
0000
,
0101
0000
0000
0000
,
0000
0000
0000
0000
,
0000
0000
0000
0000
,
0000
0000
0000
0000
,
1100
0000
0000
0000
,
0000
0000
0000
0000
,
0000
0000
0000
0000
,
0000
0000
0000
0000
,
0110
0000
0000
0000
,
0000
0000
0000
0000
,
0000
0000
0000
0000
,
0000
0000
0000
0000
,
0101
0000
0000
0000
,
0000
0000
0000
0000
,
0000
0000
0000
0000
,
0000
0000
0000
0000
,
1100
0000
0000
0000
,
0000
0000
0000
0000
,
0000
0000
0000
0000
,
0000
0000
0000
0000
,
0010
0000
0000
0000
,
0100
0000
0000
0000
,
0001
0000
0000
0000
,
1000
0000
0000
0000
,
0100
0000
0000
0000
,
0001
0000
0000
0000
,
1000
0000
0000
0000
,
0100
0000
0000
0000
,
0001
0000
0000
0000
,
0010
0000
0000
0000
,
0100
0000
0000
0000
,
0001
0000
0000
0000
,
1000
0000
0000
0000
,
0100
0000
0000
0000
,
0001
0000
0000
0000
,
1000
0000
0000
0000
,
0110
0000
0000
0000
,
0000
0000
0000
0000
,
0000
0000
0000
0000
,
0000
0000
0000
0000
,
1001
0000
0000
0000
,
0000
0000
0000
0000
,
0000
0000
0000
0000
,
0000
0000
0000
0000
,
1001
0000
0000
0000
,
0000
0000
0000
0000
,
0000
0000
0000
0000
,
0000
0000
0000
0000
,
0110
0000
0000
0000
,
0000
0000
0000
0000
,
0000
0000
0000
0000
,
0000
0000
0000
0000
,
1001
0000
0000
0000
,
0000
0000
0000
0000
,
1001
0000
0000
0000
,
0000
0000
0000
0000
,
1001
0000
0000
0000
,
0000
0000
0000
0000
,
1001
0000
0000
0000
,
0000
0000
0000
0000
,
0001
0000
0100
0000
,
0010
0000
0100
0000
,
0001
0000
1000
0000
,
0100
0000
0001
0000
,
0010
0000
0100
0000
,
0001
0000
1000
0000
,
0100
0000
0001
0000
,
0010
0000
0100
0000
,
0001
0000
0000
0000
,
0000
0000
0000
0000
,
1000
0000
0000
0000
;
